Welcome Guest ( Log In | Register )

> From The Void - Hänen Valonsa [ep] (2018), Black Metal
post Aug 10 2018, 10:03:07
Post #1

Аннигилятор пивА
Group Icon
Group: V.I.P
Posts: 50,803
Releases: 15843
From: Koenigsberg - TILZIT
On Forums: 12 years 6 months
Thanks: 345260 time(s)
Russian Federation


(IMG:https://metalarea.org/images/audiocovers/2018_Aug/acov_tid309225_thumb.jpg)

*Artist: From The Void
*Album: Hänen Valonsa [ep]
*Year: 2018
*Genre: Black Metal
*Country: Finland (IMG:https://metalarea.org/forum/style_images/flags/Finland.png)
*Format: mp3@CBR320kbps
*Size: 55MB

Tracklist:
1. Man Created God 03:20
2. Hänen Valonsa 03:43
3. Lies 04:07
4. Puhdistus 07:33
5. The Goat (Sopor Aeternus Cover) 04:28
******************************
Total playing time: 23:11



Extended info
PH - Unknown
AR - Unknown (Ravage Machinery, ex-The Man-Eating Tree , ex-Wolfheart)
HJ - Unknown
SJ - Unknown


Technical info
(IMG:https://metalarea.org/images/spectrogram/2018_Aug/9dd096baf3af15d3af8f7228c31c6810.png)
Input File: From the Void - Hänen Valonsa EP - 02 Hänen Valonsa.mp3
Channels : 2
Sample Rate : 44100
Precision : 16-bit
Duration : 00:03:43.52 = 9857056 samples = 16763.7 CDDA sectors
File Size : 9.17M
Bit Rate : 328k
Sample Encoding: MPEG audio (layer I, II or III)
Comments :
Title=Hänen Valonsa
Artist=From the Void
Album=Hänen Valonsa EP
Tracknumber=2
Year=2018



Register


Go to the top of the page
  Insert nick Quick quote
+Quote Post
 
Start new topic
Replies (1 - 4)
post Aug 11 2018, 03:15:08
Post #2

Правь статус, ####!111
**************
Group: Металариец
Posts: 2,421
Releases: 11
From: Canada
On Forums: 11 years 6 months
Thanks: 1543 time(s)
Canada


Go to the top of the page
  Insert nick Quick quote
+Quote Post
post Aug 11 2018, 07:52:14
Post #3

Четыре Литра
****
Group: Металариец
Posts: 348
Releases: 1
On Forums: 1 year 6 months
Thanks: 134 time(s)
Russian Federation


никак этот похоронный марш в покое оставить не могут) в пятом треке
Go to the top of the page
  Insert nick Quick quote
+Quote Post
post Aug 12 2018, 21:26:47
Post #4

Leegte
***********
Group: Металариец
Posts: 1,515
Releases: 14
From: Kiovia
On Forums: 6 years 7 months
Thanks: 2131 time(s)
Ukraine


QUOTE
The Goat (Sopor Aeternus Cover)

Качаю ради этого.
БМ-кавер на Sopor Aeternus я ещё не слышал.

p.s.
Крайне неудачный трек для кавера (IMG:style_emoticons/default/smile2.gif)
Go to the top of the page
  Insert nick Quick quote
+Quote Post
post Aug 12 2018, 21:41:01
Post #5

Маньяк
**********
Group: Металариец
Posts: 1,035
Releases: 0
From: Canada
On Forums: 6 years 1 month
Thanks: 604 time(s)
Canada


Go to the top of the page
  Insert nick Quick quote
+Quote Post

Reply to this topicStart new topic
1 User(s) are reading this topic (1 Guests and 0 Anonymous Users)
0 Members:

 



- Lo-Fi Version Support form
Copyrights and abuse reports form
Time is now: 13th December 2018 - 13:47:23