Welcome Guest ( Log In | Register )

 
Reply to this topicStart new topic
> Illusionary Funeral - As The Nightshade Becomes One With Her In The Aspen Forest [single] (2018), Progressive/Melodic Black/Death Metal
post Aug 10 2018, 10:42:29
Post #1

Аннигилятор пивА
Group Icon
Group: V.I.P
Posts: 50,242
Releases: 15585
From: Koenigsberg - TILZIT
On Forums: 12 years 5 months
Thanks: 338763 time(s)
Russian Federation


(IMG:https://metalarea.org/images/audiocovers/2018_Aug/acov_tid309226_thumb.jpg)

*Artist: Illusionary Funeral
*Album: As The Nightshade Becomes One With Her In The Aspen Forest [single]
*Year: 2018
*Genre: Progressive/Melodic Black/Death Metal
*Country: United States (IMG:https://metalarea.org/forum/style_images/flags/United%20States.png)
*Format: mp3@CBR320kbps
*Size: 47MB

Tracklist:
1. As the Nightshade Becomes One With Her in the Aspen Forest 20:21
******************************
Total playing time: 20:21




Technical info
(IMG:https://metalarea.org/images/spectrogram/2018_Aug/3f7b9abeac00079c6b574c91b3f3314a.png)
Input File: 01 As the Nightshade Becomes One With Her in the Aspen Forest.mp3
Channels : 2
Sample Rate : 44100
Precision : 16-bit
Duration : 00:20:21.22 = 53855670 samples = 91591.3 CDDA sectors
File Size : 49.0M
Bit Rate : 321k
Sample Encoding: MPEG audio (layer I, II or III)
Comments :
Title=As the Nightshade Becomes One With Her in the Aspen Forest
Artist=Illusionary Funeral
Album=As the Nightshade Becomes One With Her in the Aspen Forest
Tracknumber=1
Year=2018



Register


Go to the top of the page
  Insert nick Quick quote
+Quote Post

Reply to this topicStart new topic
2 User(s) are reading this topic (2 Guests and 0 Anonymous Users)
0 Members:

 



- Lo-Fi Version Support form
Copyrights and abuse reports form
Time is now: 14th November 2018 - 01:09:30