Welcome Guest ( Log In | Register )

> Illusionary Funeral - Impossible Requests Of The Lunatic Majesty (2018), Progressive Black/Death Metal
post Aug 10 2018, 10:43:51
Post #1

Аннигилятор пивА
Group Icon
Group: V.I.P
Posts: 49,521
Releases: 15311
From: Koenigsberg - TILZIT
On Forums: 12 years 4 months
Thanks: 333679 time(s)
Russian Federation


(IMG:https://metalarea.org/images/audiocovers/2018_Aug/acov_tid309227_thumb.jpg)

*Artist: Illusionary Funeral
*Album: Impossible Requests Of The Lunatic Majesty
*Year: 2018
*Genre: Progressive Black/Death Metal
*Country: United States (IMG:https://metalarea.org/forum/style_images/flags/United%20States.png)
*Format: mp3@CBR320kbps
*Size: 138MB

Tracklist:
1. The Majestic Lunatic's Requiem 08:57
2. Stone Begging Bowl of the Buddha 06:55
3. From Mount Hourai, the Jeweled Branch Came (Ft. Michael J. Allen) 05:15
4. Robe of the Fire Rat 09:27
5. A Dragon's Colored Ornament 04:47
6. The Cowry Treasure of the Swallows 05:55
7. Descent to Mount Hourai - Memories of the Exile to Earth 05:42
8. Last Word (Ft. Luka Megurine) 11:58
******************************
Total playing time: 58:56




Extended info
The sophomore album by Illusionary Funeral, this is a concept album revolving around the tale of Princess Kaguya. Compared to the first album, this one is more focused on avant-garde elements and dipping its toes in progressive elements as well, whilst still giving the blackened melodeath riffage that Illusionary Funeral is known for.


Technical info
(IMG:https://metalarea.org/images/spectrogram/2018_Aug/4684c9189d34824529d7ba3048fbb55c.png)
Input File: 03 From Mount Hourai, the Jeweled Branch Came (Ft. Michael J. Allen).mp3
Channels : 2
Sample Rate : 44100
Precision : 16-bit
Duration : 00:05:16.08 = 13938952 samples = 23705.7 CDDA sectors
File Size : 12.8M
Bit Rate : 323k
Sample Encoding: MPEG audio (layer I, II or III)
Comments :
Title=From Mount Hourai, the Jeweled Branch Came (Ft. Michael J. Allen)
Artist=Illusionary Funeral
Album=Impossible Requests of the Lunatic Majesty
Tracknumber=3
Year=2018



Register


Go to the top of the page
  Insert nick Quick quote
+Quote Post
 
Start new topic
Replies (1 - 1)
post Aug 10 2018, 13:57:36
Post #2

Аннигилятор пивА
Group Icon
Group: V.I.P
Posts: 49,521
Releases: 15311
From: Koenigsberg - TILZIT
On Forums: 12 years 4 months
Thanks: 333679 time(s)
Russian Federation


mirror
Register


Thanks:
Go to the top of the page
  Insert nick Quick quote
+Quote Post

Reply to this topicStart new topic
1 User(s) are reading this topic (1 Guests and 0 Anonymous Users)
0 Members:

 



- Lo-Fi Version Support form
Copyrights and abuse reports form
Time is now: 20th October 2018 - 22:04:24