Welcome Guest ( Log In | Register )

 
Reply to this topicStart new topic
> Armorer - Traverse [ep] (2018), Atmospheric Black Metal (D4)
post Aug 10 2018, 10:56:48
Post #1

Аннигилятор пивА
Group Icon
Group: V.I.P
Posts: 49,521
Releases: 15311
From: Koenigsberg - TILZIT
On Forums: 12 years 4 months
Thanks: 333682 time(s)
Russian Federation


(IMG:https://metalarea.org/images/audiocovers/2018_Aug/acov_tid309229_thumb.jpg)

*Artist: Armorer
*Album: Traverse [ep]
*Year: 2018
*Genre: Atmospheric Black Metal
*Country: United States (IMG:https://metalarea.org/forum/style_images/flags/United%20States.png)
*Format: mp3@CBR320kbps
*Size: 33MB

Tracklist:
1. Petals of Misfortune 04:11
2. Traverse 05:51
3. Unforgiven 03:42
******************************
Total playing time: 13:44



Technical info
(IMG:https://metalarea.org/images/spectrogram/2018_Aug/fb192f83bb085dd829db17fdd2dc2607.png)
Input File: Armorer - Traverse - 02 Traverse.mp3
Channels : 2
Sample Rate : 44100
Precision : 16-bit
Duration : 00:05:52.02 = 15524038 samples = 26401.4 CDDA sectors
File Size : 14.3M
Bit Rate : 325k
Sample Encoding: MPEG audio (layer I, II or III)
Comments :
Title=Traverse
Artist=Armorer
Album=Traverse
Tracknumber=2
Year=2018



Register


Go to the top of the page
  Insert nick Quick quote
+Quote Post

Reply to this topicStart new topic
1 User(s) are reading this topic (1 Guests and 0 Anonymous Users)
0 Members:

 



- Lo-Fi Version Support form
Copyrights and abuse reports form
Time is now: 20th October 2018 - 22:16:54