Welcome Guest ( Log In | Register )

 
Reply to this topicStart new topic
> Saprogenous - Yimpsed (2018), Goregrind
post Aug 10 2018, 11:43:32
Post #1

Serial Uploader
Group Icon
Group: V.I.P
Posts: 33,280
Releases: 31557
From: Lithuania
On Forums: 10 years 5 months
Thanks: 360485 time(s)
Lithuania


(IMG:https://metalarea.org/images/audiocovers/2018_Aug/acov_tid309230_thumb.jpg)

*Artist: Saprogenous
*Album: Yimpsed
*Year: 2018
*Genre: Goregrind
*Country: United States (IMG:https://metalarea.org/forum/style_images/flags/United%20States.png)
*Format: mp3@CBR320kbps
*Size: 34MB

Tracklist:
01. Hard Muscle 01:44
02. Endless Cascade Of Vomit 00:45
03. Domed 00:36
04. Nuts In The Butt 01:16
05. Wreched Retardation 00:50
06. Bolders Falling Out Your Nose 00:40
07. M2 Segment Of Middle Cerebral Artery 00:33
08. Sack Full Of Guts (Feat. Sean Ulfhednar) 01:00
09. Tabetic Neurosyphilis 00:29
10. Bactillary Angiomatosis To The Future 00:49
11. Pine Tar Incident 03:06
12. Final Bloodbath (Mortician Cover) 00:58
13. Suicide Note Pt 2 (Pantera Cover) 01:55
******************************
Total playing time: 14:41



Technical info
(IMG:https://metalarea.org/images/spectrogram/2018_Aug/b78675d83ef31dcc678953e1244f2123.png)
Input File: 02. Endless Cascade Of Vomit.mp3
Channels : 2
Sample Rate : 44100
Precision : 16-bit
Duration : 00:00:45.87 = 2022999 samples = 3440.47 CDDA sectors
File Size : 2.01M
Bit Rate : 350k
Sample Encoding: MPEG audio (layer I, II or III)
Comments :
Title=Endless Cascade Of Vomit
Artist=Saprogenous
Album=Yimpsed
Tracknumber=2
Year=2018



Register


Thanks:
(2) denver, Rosen,
Go to the top of the page
  Insert nick Quick quote
+Quote Post

Reply to this topicStart new topic
2 User(s) are reading this topic (2 Guests and 0 Anonymous Users)
0 Members:

 



- Lo-Fi Version Support form
Copyrights and abuse reports form
Time is now: 15th November 2018 - 02:40:58