Welcome Guest ( Log In | Register )

 
Reply to this topicStart new topic
> Pus Drinkers & Gangrene Discharge - Pus Drinkers/Gangrene Discharge [split] (2018), Goregrind | Goregrind (D4)
post Aug 10 2018, 12:12:34
Post #1

Serial Uploader
Group Icon
Group: V.I.P
Posts: 33,137
Releases: 31421
From: Lithuania
On Forums: 10 years 4 months
Thanks: 359287 time(s)
Lithuania


(IMG:https://metalarea.org/images/audiocovers/2018_Aug/acov_tid309231_thumb.jpg)

*Artist: Pus Drinkers & Gangrene Discharge
*Album: Pus Drinkers/Gangrene Discharge [split]
*Year: 2018
*Genre: Goregrind | Goregrind
*Country: United States (IMG:https://metalarea.org/forum/style_images/flags/United%20States.png) | United States (IMG:https://metalarea.org/forum/style_images/flags/United%20States.png)
*Format: mp3@CBR320kbps
*Size: 54MB

Tracklist:
Pus Drinkers:
01. Boiling Down Bodies 01:07
02. Unconscious Disembowelment 01:02
03. Drooling In Cut Open Bodys Stomach 01:07
04. Gouging Out Ear Drums For Sexual Gratifaction 01:03
05. Sucking Out The Rectum Spillage 01:23
06. Car Accidents And Laughing Gas 01:16
07. Drinking Piss 01:37
08. Choking On Your Kids Bones 00:52
09. Old School Tooth Removal 01:01
10. Facial Disfiguring Fetish 00:54
Gangrene Discharge:
11. Larynx Impalement 00:38
12. Smut Box 01:17
13. Defecative Demise (Writhe In Shit) 00:33
14. Projectile Bowel Movement 01:05
15. Cervix Removal 00:36
16. Fungating Festered Limb Burst 00:58
17. Lacerated Aorta Expungence 01:25
18. Gaping Anatomical Treasures 01:07
19. Muddy After-Amputation Putrilege 00:52
20. Liquified Mess Of Putrefactive Fluids 00:47
21. Hacked Human Entrails Beneath My Bed 00:56
22. Carnal Corpse Palor 00:40
******************************
Total playing time: 22:16



Technical info
(IMG:https://metalarea.org/images/spectrogram/2018_Aug/72e5ced6f385f40cdba1fda1d0682e01.png)
Input File: 02. Unconscious Disembowelment.mp3
Channels : 2
Sample Rate : 44100
Precision : 16-bit
Duration : 00:01:02.20 = 2743020 samples = 4665 CDDA sectors
File Size : 2.64M
Bit Rate : 339k
Sample Encoding: MPEG audio (layer I, II or III)
Comments :
Title=Unconscious Disembowelment
Artist=Pus Drinkers
Album=Pus Drinkers/Gangrene Discharge
Tracknumber=2
Year=2018



Register


Thanks:
Go to the top of the page
  Insert nick Quick quote
+Quote Post

Reply to this topicStart new topic
1 User(s) are reading this topic (1 Guests and 0 Anonymous Users)
0 Members:

 



- Lo-Fi Version Support form
Copyrights and abuse reports form
Time is now: 20th October 2018 - 22:00:29