Welcome Guest ( Log In | Register )

> Todlicht - Einsamkeit [demo] (2018), Raw Black Metal
post Aug 10 2018, 12:47:43
Post #1

Маньяк
**********
Group: Металариец
Posts: 1,429
Releases: 1114
From: Prešov
On Forums: 4 years 7 months
Thanks: 26189 time(s)
Slovakia


(IMG:http://metalarea.org/images/audiocovers/2018_Aug/acov_tid309232_thumb.jpg)

*Artist: Todlicht
*Album: Einsamkeit [demo]
*Year: 2018
*Genre: Raw Black Metal
*Country: Bosnia and Herzegovina (IMG:http://metalarea.org/forum/style_images/flags/Bosnia%20and%20Herzegovina.png)
*Format: mp3@CBR320kbps
*Size: 44MB

Tracklist:
A1. Einsamkeit 18:06
******************************
Total playing time: 18:06



Extended info
Nebular Carcoma Records ‎– MOSS 025
Tape-rip + Scans


Technical info
(IMG:http://metalarea.org/images/spectrogram/2018_Aug/20131bd85f807e5c5f346d5b6917de4a.png)
Input File: A1. Einsamkeit.mp3
Channels : 2
Sample Rate : 48000
Precision : 16-bit
Duration : 00:18:07.06 = 52178832 samples ~ 81529.4 CDDA sectors
File Size : 43.7M
Bit Rate : 322k
Sample Encoding: MPEG audio (layer I, II or III)
Comments :
Title=Untitled
Artist=Todlicht
Album=Einsamkeit
Tracknumber=01/01
Year=2018
Genre=Black Metal



Register


Go to the top of the page
  Insert nick Quick quote
+Quote Post
 
Start new topic
Replies (1 - 3)
post Aug 11 2018, 07:58:58
Post #2

Четыре Литра
****
Group: Металариец
Posts: 320
Releases: 1
On Forums: 1 year 5 months
Thanks: 125 time(s)
Russian Federation


лучшее, что я слышал на этой неделе (IMG:style_emoticons/default/true_black.gif)
Go to the top of the page
  Insert nick Quick quote
+Quote Post
post Aug 12 2018, 16:14:31
Post #3

Два Литра
**
Group: Завсегдатай
Posts: 126
Releases: 22
From: Узбекистан
On Forums: 8 years 5 months
Thanks: 175 time(s)
Uzbekistan


Отличный альбом, и не только рау, но и атмосферик.
Go to the top of the page
  Insert nick Quick quote
+Quote Post
post Aug 14 2018, 18:43:43
Post #4

Четыре Литра
****
Group: Металариец
Posts: 313
Releases: 0
On Forums: 1 year 3 weeks
Thanks: 121 time(s)
Unknown


Сыро и атмосферно. Отличный Блэк Метал
Go to the top of the page
  Insert nick Quick quote
+Quote Post

Reply to this topicStart new topic
2 User(s) are reading this topic (2 Guests and 0 Anonymous Users)
0 Members:

 



- Lo-Fi Version Support form
Copyrights and abuse reports form
Time is now: 15th November 2018 - 02:41:34