Welcome Guest ( Log In | Register )

> Super Moon - Disciple (2018), Stoner Metal/Rock
post Aug 10 2018, 13:11:39
Post #1

Аннигилятор пивА
Group Icon
Group: V.I.P
Posts: 50,242
Releases: 15585
From: Koenigsberg - TILZIT
On Forums: 12 years 5 months
Thanks: 338765 time(s)
Russian Federation


(IMG:https://metalarea.org/images/audiocovers/2018_Aug/acov_tid309233_thumb.jpg)

*Artist: Super Moon
*Album: Disciple
*Year: 2018
*Genre: Stoner Metal/Rock
*Country: United States (IMG:https://metalarea.org/forum/style_images/flags/United%20States.png)
*Format: mp3@CBR320kbps
*Size: 113MB

Tracklist:
1. Floating On Air
2. Stone Baby
3. Galactic Casket
4. Dark Matter Woman
5. From The Space
6. From The Earth
7. Horn On The Mountain
8. Misery Wizard
9. Disciple
******************************
Total playing time: 49:08



Extended info



Technical info
(IMG:https://metalarea.org/images/spectrogram/2018_Aug/68158ba2ccf918aeca5bd9cc897785ce.png)
Input File: 02 Stone Baby.mp3
Channels : 2
Sample Rate : 44100
Precision : 16-bit
Duration : 00:05:00.09 = 13233881 samples = 22506.6 CDDA sectors
File Size : 12.2M
Bit Rate : 324k
Sample Encoding: MPEG audio (layer I, II or III)
Comments :
Title=Stone Baby
Artist=Super Moon
Album=Disciple
Tracknumber=2/9
Year=2018
Genre=Stoner Metal/Rock
Discnumber=1/1



Register


Go to the top of the page
  Insert nick Quick quote
+Quote Post
 
Start new topic
Replies (1 - 1)
post Aug 10 2018, 13:21:39
Post #2

Аннигилятор пивА
Group Icon
Group: V.I.P
Posts: 50,242
Releases: 15585
From: Koenigsberg - TILZIT
On Forums: 12 years 5 months
Thanks: 338765 time(s)
Russian Federation


mirror

Register


Thanks:
Go to the top of the page
  Insert nick Quick quote
+Quote Post

Reply to this topicStart new topic
2 User(s) are reading this topic (2 Guests and 0 Anonymous Users)
0 Members:

 



- Lo-Fi Version Support form
Copyrights and abuse reports form
Time is now: 14th November 2018 - 01:59:37