Welcome Guest ( Log In | Register )

> Hateful Agony - Plastic Culture Pestilence (2018), Old School Thrash Metal
post Aug 16 2018, 13:01:03
Post #1

Правь статус, ####!111
**************
Group: Металариец
Posts: 27,706
Releases: 20146
From: Г.Харьков
On Forums: 9 years 5 months
Thanks: 407747 time(s)
Unknown


(IMG:http://metalarea.org/images/audiocovers/2018_Aug/acov_tid309453_thumb.jpg)

*Artist: Hateful Agony
*Album: Plastic Culture Pestilence
*Year: 2018
*Genre: Old School Thrash Metal
*Country: Germany (IMG:http://metalarea.org/forum/style_images/flags/Germany.png)
*Format: mp3@CBR320kbps
*Size: 96MB

Tracklist:
1. Kill Each Other 03:40
2. Endure the Pain 05:24
3. The Iceman 04:57
4. Obsessed with Death 04:33
5. Philip in the Attic 03:27
6. Eternal Punishment 03:26
7. Life's Failure 03:52
8. Black Blood 04:20
9. Plastic Culture Pestilence 02:29
10. Resurect the Dead 03:33
******************************
Total playing time: 39:41




Extended info
Hateful Tom Drums (1997-present)
See also: ex-Caedes, ex-Avator, ex-Beerhammer (live), ex-Bitter Loss
Jul Bass (2013-2015), Vocals (2013-present)
See also: ex-Beerhammer (live)
Tante Gerber Guitars (2013-present)
Schweinchen Guitars (2013-present)
Mettdave Bass (2015-present)


Technical info
(IMG:http://metalarea.org/images/spectrogram/2018_Aug/7ad6165f4c8059eeca111e16aa61e980.png)
Input File: 03 The Iceman.mp3
Channels : 2
Sample Rate : 44100
Precision : 16-bit
Duration : 00:00:00.30 = 13098 samples = 22.2755 CDDA sectors
File Size : 12.3M
Bit Rate : 331M
Sample Encoding: MPEG audio (layer I, II or III)
Comments :
Title=The Iceman
Artist=Hateful Agony
Album=Plastic Culture Pestilence
Tracknumber=03/10
Year=2018-18-20
Genre=Rock
Discnumber=1/1



Register


Go to the top of the page
  Insert nick Quick quote
+Quote Post
 
Start new topic
Replies (1 - 7)
post Aug 16 2018, 14:43:13
Post #2

Правь статус, ####!111
**************
Group: Металариец
Posts: 27,706
Releases: 20146
From: Г.Харьков
On Forums: 9 years 5 months
Thanks: 407747 time(s)
Unknown


Cloud Mail 320
Register


Go to the top of the page
  Insert nick Quick quote
+Quote Post
post Aug 20 2018, 20:34:48
Post #3

Сектант технодро4чер
**************
Group: Металариец
Posts: 5,587
Releases: 143
From: Тимчасово окупована територія
On Forums: 13 years 2 months
Thanks: 5977 time(s)
Ukraine


Недурно.
Go to the top of the page
  Insert nick Quick quote
+Quote Post
post Aug 20 2018, 20:41:44
Post #4

Правь статус, ####!111
**************
Group: Металариец
Posts: 49,267
Releases: 875
On Forums: 12 years 4 months
Thanks: 44869 time(s)
Russian Federation


Обложка похоже от Репы. Как обычно дядя Эд на отлично. Вот вроде 300 лет уже ваяет одно и то же, а смотрится свежо.
Go to the top of the page
  Insert nick Quick quote
+Quote Post
post Aug 21 2018, 08:31:18
Post #5

Три Литра
***
Group: Завсегдатай
Posts: 234
Releases: 0
On Forums: 5 years 7 months
Thanks: 175 time(s)
Cayman Islands


добротный трэш! (IMG:style_emoticons/default/metaler.gif)
Go to the top of the page
  Insert nick Quick quote
+Quote Post
post Aug 21 2018, 08:53:56
Post #6

Dr.
**************
Group: Металариец
Posts: 5,334
Releases: 0
From: Primorye.ru
On Forums: 10 years 6 months
Thanks: 1109 time(s)
Russian Federation


То да, на высшем уровне (IMG:style_emoticons/default/metaler.gif) Альбом уверенно вкатил и конечно повторял, позитивные впечатления только.
Go to the top of the page
  Insert nick Quick quote
+Quote Post
post Aug 26 2018, 12:26:06
Post #7

Три Литра
***
Group: Завсегдатай
Posts: 210
Releases: 0
On Forums: 10 years 4 months
Thanks: 55 time(s)
Lithuania


Облога зачет.
Go to the top of the page
  Insert nick Quick quote
+Quote Post
post Aug 28 2018, 10:19:23
Post #8

South Of Heaven /адепт ВУДУ
**************
Group: Металариец
Posts: 13,960
Releases: 9
On Forums: 11 years 6 months
Thanks: 5569 time(s)
Unknown


6-й альбом, упрямо идут проторённой дорогой первых альбомов, от первоначального состава остался один человек.
Go to the top of the page
  Insert nick Quick quote
+Quote Post

Reply to this topicStart new topic
1 User(s) are reading this topic (1 Guests and 0 Anonymous Users)
0 Members:

 



- Lo-Fi Version Support form
Copyrights and abuse reports form
Time is now: 21st October 2021 - 21:21:29