Welcome Guest ( Log In | Register )

> Primitive Man & Unearthly Trance - Primitive Man/Unearthly Trance [split] (2018), Blackened Sludge/Doom Metal | Sludge/Doom Metal
post Aug 16 2018, 20:22:21
Post #1
BAN
Banned till
Aug 21 2022, 13:53:24



(IMG:https://metalarea.org/images/audiocovers/2018_Aug/acov_tid309467_thumb.jpg)

*Artist: Primitive Man & Unearthly Trance
*Album: Primitive Man/Unearthly Trance [split]
*Year: 2018
*Genre: Blackened Sludge/Doom Metal | Sludge/Doom Metal
*Country: United States (IMG:https://metalarea.org/forum/style_images/flags/United%20States.png) | United States (IMG:https://metalarea.org/forum/style_images/flags/United%20States.png)
*Format: mp3@CBR320kbps
*Size: 96MB

Tracklist:
Primitive Man:
01. Merging (Intro) 00:59
02. Naked 10:36
03. Love Under Will 09:13
Unearthly Trance:
04. Mechanism Error 07:14
05. Triumph 05:27
06. Reverse the Day 04:19
07. 418 06:16
******************************
Total playing time: 44:04






Extended info
JPC - Bass (Maliblis, Reproacher, ex-Cobalt)
ELM - Vocals, Guitars (ex-Clinging to the Trees of a Forest Fire, ex-Vermin Womb, Many Blessings, ex-Withered, ex-Catheter, ex-Death of Self, ex-Keep)
JDL - Drums (2016-present)


Jay Newman - Bass, Noise (2000-2012, 2015-present) See also: Serpentine Path, Abandoner, Humanless, ex-Thralldom, ex-Villains
Ryan Lipynsky - Guitars, Vocals, Noise (2000-2012, 2015-present) See also: Force & Fire, Green Dragon, Hollow Senses, Serpentine Path, The Howling Wind, Thralldom, Zombie Lake, ex-Drifting Collision, Humanless, MKRL, RL:ZZ, Viodre, ex-Villains, ex-Decimation, ex-Motive, ex-Pollution
Darren Verni - Drums (2001-2012, 2015-present) See also: Serpentine Path


Technical info
(IMG:https://metalarea.org/images/spectrogram/2018_Aug/b5ca3abb1c64146bb626f066548da82c.png)
Input File: 06-unearthly_trance-reverse_the_day-3d911c24.mp3
Channels : 2
Sample Rate : 44100
Precision : 16-bit
Duration : 00:04:19.18 = 11429750 samples = 19438.4 CDDA sectors
File Size : 10.7M
Bit Rate : 329k
Sample Encoding: MPEG audio (layer I, II or III)
Comments :
Title=Reverse the Day
Artist=Unearthly Trance
Album=Split
Tracknumber=6/7
Year=2018
Genre=Metal



Register


Go to the top of the page
  Insert nick Quick quote
+Quote Post
 
Start new topic
Replies (1 - 2)
post Aug 17 2018, 04:26:43
Post #2
BAN
Banned till
Aug 21 2022, 13:53:24



MIRROR
Register

Register


Go to the top of the page
  Insert nick Quick quote
+Quote Post
post Oct 14 2019, 15:01:18    Сейчас играет: Skinweaver - Kneedeep in the Flesh
Post #3

antithesis
**************
Group: Металариец
Posts: 3,697
Releases: 35
From: VRN
On Forums: 12 years 2 months
Thanks: 2394 time(s)
Russian Federation


reuploaded
Register


Go to the top of the page
  Insert nick Quick quote
+Quote Post

Reply to this topicStart new topic
1 User(s) are reading this topic (1 Guests and 0 Anonymous Users)
0 Members:

 



- Lo-Fi Version Support form
Copyrights and abuse reports form
Time is now: 15th August 2022 - 01:54:07