Welcome Guest ( Log In | Register )

> Creation Of Darkness - Eternal Suffering (2018), Brutal Death Metal
post Aug 18 2018, 04:49:35
Post #1

Правь статус, ####!111
**************
Group: Металариец
Posts: 20,297
Releases: 13832
From: Г.Харьков
On Forums: 7 years 8 months
Thanks: 241910 time(s)
Unknown


(IMG:http://metalarea.org/images/audiocovers/2018_Aug/acov_tid309507_thumb.jpg)

*Artist: Creation Of Darkness
*Album: Eternal Suffering
*Year: 2018
*Genre: Brutal Death Metal
*Country: Iran (IMG:http://metalarea.org/forum/style_images/flags/Iran.png)
*Format: mp3@CBR320kbps
*Size: 49MB

Tracklist:
1. Eternal Suffering 04:14
2. We are Victimized 04:09
3. Torment of The Soul 03:11
4. Arch-Fiend 03:40
5. Acid Scarred Face 05:48
******************************
Total playing time: 21:02




Extended info
Paker Pir Niyakan (Composer , Guitars)
Shahin Jebelli (Drums)


Technical info
(IMG:http://metalarea.org/images/spectrogram/2018_Aug/550166a3ec3a884e670c0122c2bb3737.png)
Input File: Creation of Darkness - Eternal Suffering - 02 We Are Victimized.mp3
Channels : 2
Sample Rate : 44100
Precision : 16-bit
Duration : 00:04:09.59 = 11006787 samples = 18719 CDDA sectors
File Size : 10.1M
Bit Rate : 323k
Sample Encoding: MPEG audio (layer I, II or III)
Comments :
Title=We Are Victimized
Artist=Creation of Darkness
Album=Eternal Suffering
Tracknumber=2
Year=2018



Register


Go to the top of the page
  Insert nick Quick quote
+Quote Post
 
Start new topic
Replies (1 - 1)
post Aug 18 2018, 15:41:25
Post #2

Три Литра
***
Group: Завсегдатай
Posts: 282
Releases: 0
From: Kyiv
On Forums: 7 years 9 months
Thanks: 110 time(s)
Ukraine


В Иране такое играть - это круто


Thanks:
Go to the top of the page
  Insert nick Quick quote
+Quote Post

Reply to this topicStart new topic
2 User(s) are reading this topic (2 Guests and 0 Anonymous Users)
0 Members:

 



- Lo-Fi Version Support form
Copyrights and abuse reports form
Time is now: 22nd January 2020 - 04:32:45