Welcome Guest ( Log In | Register )

> Seventh Of Never - The Theory Of Evilution (2018), Progressive Metal
post Aug 23 2018, 21:59:28
Post #1

Аннигилятор пивА
Group Icon
Group: V.I.P
Posts: 52,360
Releases: 16550
From: Koenigsberg - TILZIT
On Forums: 14 years 3 days
Thanks: 365269 time(s)
Russian Federation


(IMG:https://metalarea.org/images/audiocovers/2018_Aug/acov_tid309732_thumb.jpg)

*Artist: Seventh Of Never
*Album: The Theory Of Evilution
*Year: 2018
*Genre: Progressive Metal
*Country: United States (IMG:https://metalarea.org/forum/style_images/flags/United%20States.png)
*Format: mp3@CBR320kbps
*Size: 99MB

Tracklist:
01. An Enemy at the Gates
02. Blessed Curses
03. Evilution
04. (The Beginning Of) The End
05. The Anointed 1.0
06. Burn the Witch
07. Stolen Valor
08. Rite as Reign
09. Deadly Beloved
******************************
Total playing time: 42:11



Extended info
Dan Coleman - Vocals
Richie Tiberghien - Guitar
Danny Johnson - Guitar
Dave Boser - Bass
Damone Wittman - Drums
Dan Elze - Keyboards


Technical info
(IMG:https://metalarea.org/images/spectrogram/2018_Aug/adb6e75c4f3647045c9d01f8873a7332.png)
Input File: 02. Blessed Curses.mp3
Channels : 2
Sample Rate : 44100
Precision : 16-bit
Duration : 00:03:49.50 = 10120994 samples = 17212.6 CDDA sectors
File Size : 9.40M
Bit Rate : 328k
Sample Encoding: MPEG audio (layer I, II or III)
Comments :
Title=Blessed Curses
Artist=Seventh of Never
Album=The Theory Of Evilution
Tracknumber=2/9
Year=2018
Discnumber=1/1



Register


Thanks:
Go to the top of the page
  Insert nick Quick quote
+Quote Post
 
Start new topic
Replies (1 - 6)
post Aug 24 2018, 13:28:36
Post #2

Аннигилятор пивА
Group Icon
Group: V.I.P
Posts: 52,360
Releases: 16550
From: Koenigsberg - TILZIT
On Forums: 14 years 3 days
Thanks: 365269 time(s)
Russian Federation


Классический прог метал
mirror
Register


Thanks:
Go to the top of the page
  Insert nick Quick quote
+Quote Post
post Aug 25 2018, 00:20:51
Post #3

Правь статус, ####!111
**************
Group: Металариец
Posts: 2,459
Releases: 11
From: Canada
On Forums: 12 years 11 months
Thanks: 1639 time(s)
Canada


Preview:
https://www.seventhofneverband.com/#music-section


Thanks:
(1) AHBAnep,
Go to the top of the page
  Insert nick Quick quote
+Quote Post
post Aug 25 2018, 08:07:44
Post #4

Тридцать лет на борту "Тяжёлого" крейсера
**************
Group: Металариец
Posts: 2,279
Releases: 0
From: Питер
On Forums: 12 years 11 months
Thanks: 641 time(s)
Russian Federation


Слабый прог с противным войсом


Thanks:
(1) AHBAnep,
Go to the top of the page
  Insert nick Quick quote
+Quote Post
post Aug 25 2018, 09:35:34
Post #5

21st Century Schizoid Man
**************
Group: Металариец
Posts: 6,453
Releases: 79
From: Moscow
On Forums: 12 years 3 weeks
Thanks: 5301 time(s)
Russian Federation


Go to the top of the page
  Insert nick Quick quote
+Quote Post
post Aug 25 2018, 09:37:54
Post #6

Волк без яблока
**************
Group: Металариец
Posts: 13,479
Releases: 108
From: Санкт-Петербург
On Forums: 13 years 8 months
Thanks: 15574 time(s)
Russian Federation


Прочитал Seventh Wonder.
Go to the top of the page
  Insert nick Quick quote
+Quote Post
post Aug 25 2018, 16:15:33
Post #7

21st Century Schizoid Man
**************
Group: Металариец
Posts: 6,453
Releases: 79
From: Moscow
On Forums: 12 years 3 weeks
Thanks: 5301 time(s)
Russian Federation


Мелодичный Progressive Metal/Rock, довольно интересный.
Go to the top of the page
  Insert nick Quick quote
+Quote Post

Reply to this topicStart new topic
2 User(s) are reading this topic (2 Guests and 0 Anonymous Users)
0 Members:

 



- Lo-Fi Version Support form
Copyrights and abuse reports form
Time is now: 30th May 2020 - 22:19:09