Welcome Guest ( Log In | Register )

> Itsemurha - Rappio (2018), Atmospheric Black Metal
post Aug 28 2018, 09:12:19
Post #1

Аннигилятор пивА
Group Icon
Group: V.I.P
Posts: 52,358
Releases: 16555
From: Koenigsberg - TILZIT
On Forums: 13 years 5 months
Thanks: 362958 time(s)
Russian Federation


(IMG:https://metalarea.org/images/audiocovers/2018_Aug/acov_tid309915_thumb.jpg)

*Artist: Itsemurha
*Album: Rappio
*Year: 2018
*Genre: Atmospheric Black Metal
*Country: Finland (IMG:https://metalarea.org/forum/style_images/flags/Finland.png)
*Format: mp3@CBR192kbps
*Size: 53MB

Tracklist:
1. Introduction to Suffering 01:49
2. The True Living Dead 08:13
3. Naked 09:50
4. Burden 03:31
5. Abandon Life 08:30
6. Legacy of Grief 04:15
******************************
Total playing time: 36:08



Extended info
Melancholic Black Metal Suffering
Kadotus - Vocals, Guitars, Bass, Synths (Anal Blasphemy, Black Priest of Satan, Musta Kappeli, Sinisterite, ex-Ruttokorppi, ex-Trotzreich, ex-Calvarium, ex-Blasphemous Devotion, ex-Drowning the Light, ex-Murha, ex-Suolistosairaus)


Technical info
(IMG:https://metalarea.org/images/spectrogram/2018_Aug/bea14d945d37accbd0ccb7287269a81a.png)
Input File: 3.Naked.mp3
Channels : 2
Sample Rate : 44100
Precision : 16-bit
Duration : 00:09:50.34 = 26033906 samples = 44275.4 CDDA sectors
File Size : 14.8M
Bit Rate : 201k
Sample Encoding: MPEG audio (layer I, II or III)
Comments :
Title=Naked
Artist=Itsemurha
Album=Rappio
Tracknumber=3
Year=2018
Genre=Black Metal



Register


Go to the top of the page
  Insert nick Quick quote
+Quote Post
 
Start new topic
Replies (1 - 4)
post Aug 28 2018, 12:20:16
Post #2

Аннигилятор пивА
Group Icon
Group: V.I.P
Posts: 52,358
Releases: 16555
From: Koenigsberg - TILZIT
On Forums: 13 years 5 months
Thanks: 362958 time(s)
Russian Federation


mirror
Register

Register
Go to the top of the page
  Insert nick Quick quote
+Quote Post
post Aug 28 2018, 15:54:43
Post #3

sycamore trees
**************
Group: Металариец
Posts: 3,118
Releases: 0
On Forums: 3 years 9 months
Thanks: 1900 time(s)
Unknown


такая замечательная сладжевая облога пропала.


Thanks:
Go to the top of the page
  Insert nick Quick quote
+Quote Post
post Aug 30 2018, 16:52:54
Post #4

De Mysteriis Dom Sathanas
**************
Group: Металариец
Posts: 3,713
Releases: 63
From: Doom
On Forums: 11 years 4 months
Thanks: 3128 time(s)
Russian Federation


Кадотус дядька конечно примечательный и проекты очень даже, но этот явно не мое..к сожалению
Go to the top of the page
  Insert nick Quick quote
+Quote Post
post Nov 9 2019, 17:41:51
Post #5

antithesis
**************
Group: Металариец
Posts: 2,864
Releases: 32
From: VRN
On Forums: 9 years 5 months
Thanks: 1709 time(s)
Russian Federation


тягомотинааааааа (IMG:style_emoticons/default/14.gif)
Go to the top of the page
  Insert nick Quick quote
+Quote Post

Reply to this topicStart new topic
2 User(s) are reading this topic (2 Guests and 0 Anonymous Users)
0 Members:

 



- Lo-Fi Version Support form
Copyrights and abuse reports form
Time is now: 13th November 2019 - 21:41:59