Welcome Guest ( Log In | Register )

> Ensepulcher - Tour Tape 2018 [demo] (2018), Death Metal
post Aug 28 2018, 23:13:11
Post #1

Семь Литров
*******
Group: Металариец
Posts: 781
Releases: 19
From: Saint-Petersburg
On Forums: 10 years 2 weeks
Thanks: 1697 time(s)
Russian Federation


(IMG:http://metalarea.org/images/audiocovers/2018_Aug/acov_tid309933_thumb.jpg)

*Artist: Ensepulcher
*Album: Tour Tape 2018 [demo]
*Year: 2018
*Genre: Death Metal
*Country: United States (IMG:http://metalarea.org/forum/style_images/flags/United%20States.png)
*Format: mp3@CBR320kbps
*Size: 18MB

Tracklist:
1. Pulsations in the Rot 03:37
2. Inherent Degeneration 04:25
******************************
Total playing time: 8:02

Technical info
(IMG:http://metalarea.org/images/spectrogram/2018_Aug/fa49ce23ecfc1cdc2c18fb767630a647.png)
Input File: Ensepulcher - Tour Tape 2018 - 01 Pulsations in the Rot.mp3
Channels : 1
Sample Rate : 44100
Precision : 16-bit
Duration : 00:03:37.32 = 9583988 samples = 16299.3 CDDA sectors
File Size : 8.85M
Bit Rate : 326k
Sample Encoding: MPEG audio (layer I, II or III)
Comments :
Title=Pulsations in the Rot
Artist=Ensepulcher
Album=Tour Tape 2018
Tracknumber=1
Year=2018



Register


Thanks:
Go to the top of the page
  Insert nick Quick quote
+Quote Post
 
Start new topic
Replies (1 - 1)
post Aug 29 2018, 11:24:49
Post #2

Маньяк
**********
Group: Металариец
Posts: 1,090
Releases: 0
On Forums: 8 years 4 months
Thanks: 480 time(s)
Unknown


Go to the top of the page
  Insert nick Quick quote
+Quote Post

Reply to this topicStart new topic
2 User(s) are reading this topic (2 Guests and 0 Anonymous Users)
0 Members:

 



- Lo-Fi Version Support form
Copyrights and abuse reports form
Time is now: 22nd September 2019 - 01:03:38