Welcome Guest ( Log In | Register )

> Maligner - Attraction To Annihilation (2018), Old School Death/Thrash Metal
post Aug 30 2018, 17:05:01
Post #1

Правь статус, ####!111
**************
Group: Металариец
Posts: 20,313
Releases: 13848
From: Г.Харьков
On Forums: 7 years 8 months
Thanks: 242380 time(s)
Unknown


(IMG:https://metalarea.org/images/audiocovers/2018_Aug/acov_tid309991_thumb.jpg)

*Artist: Maligner
*Album: Attraction To Annihilation
*Year: 2018
*Genre: Old School Death/Thrash Metal
*Country: Sweden (IMG:https://metalarea.org/forum/style_images/flags/Sweden.png)
*Format: mp3@CBR320kbps
*Size: 74MB

Tracklist:
1. Oath-bound 03:18
2. Lust for Fire 04:06
3. Disposable 04:33
4. Salvation 02:59
5. Reign of Fear 04:16
6. Beyond Repair 04:12
7. Mental Breakdown 02:46
8. Into Oblivion 04:01
******************************
Total playing time: 30:11




Extended info
Maligno Bass, Vocals
Ertheb Somus-Ra Drums
Aztiak Guitars


Technical info
(IMG:https://metalarea.org/images/spectrogram/2018_Aug/d902f0f8b24760b9d35d7965092cef52.png)
Input File: 02 Lust For Fire.mp3
Channels : 2
Sample Rate : 44100
Precision : 16-bit
Duration : 00:04:05.64 = 10832812 samples = 18423.1 CDDA sectors
File Size : 10.4M
Bit Rate : 338k
Sample Encoding: MPEG audio (layer I, II or III)
Comments :
Title=Lust For Fire
Artist=Maligner
Album=Attraction To Annihilation
Tracknumber=2/8
Year=2018
Genre=Metal
Discnumber=1/1



Register


Go to the top of the page
  Insert nick Quick quote
+Quote Post
 
Start new topic
Replies (1 - 4)
post Aug 30 2018, 18:11:26
Post #2

Правь статус, ####!111
**************
Group: Металариец
Posts: 20,313
Releases: 13848
From: Г.Харьков
On Forums: 7 years 8 months
Thanks: 242380 time(s)
Unknown


Cloud Mail 320
Register


Go to the top of the page
  Insert nick Quick quote
+Quote Post
post Aug 31 2018, 12:39:21
Post #3

Пять Литров
*****
Group: Металариец
Posts: 464
Releases: 0
From: Нижний Новгород
On Forums: 13 years 6 months
Thanks: 180 time(s)
Russian Federation


Качественный микс разных влияний олд-скула. Исполнено и записано очень даже хорошо.


Thanks:
Go to the top of the page
  Insert nick Quick quote
+Quote Post
post Aug 31 2018, 20:29:19
Post #4

Три Литра
***
Group: Завсегдатай
Posts: 282
Releases: 0
From: Kyiv
On Forums: 7 years 9 months
Thanks: 110 time(s)
Ukraine


Спасибо, кайф.


Thanks:
Go to the top of the page
  Insert nick Quick quote
+Quote Post
post Sep 1 2018, 09:13:51
Post #5

Dr.
**************
Group: Металариец
Posts: 5,319
Releases: 0
From: Primorye.ru
On Forums: 8 years 10 months
Thanks: 1090 time(s)
Russian Federation


Переслушивал сегодня, в целом 30-ть минут удовольствия и хорошего настроения, чего и вам желаю.


Thanks:
(1) DarkHorde,
Go to the top of the page
  Insert nick Quick quote
+Quote Post

Reply to this topicStart new topic
2 User(s) are reading this topic (2 Guests and 0 Anonymous Users)
0 Members:

 



- Lo-Fi Version Support form
Copyrights and abuse reports form
Time is now: 24th January 2020 - 06:33:25