Welcome Guest ( Log In | Register )

> Vapor Hiemis - Ад Сонца Прэч [single] (2018), Folk/Black Metal/Ebm (D8)
post Aug 31 2018, 09:57:10
Post #1

Время Мары
**************
Group: Металариец
Posts: 3,155
Releases: 437
From: Харьков
On Forums: 10 years 11 months
Thanks: 8806 time(s)
Ukraine


(IMG:http://metalarea.org/images/audiocovers/2018_Aug/acov_tid310021_thumb.jpg)

*Artist: Vapor Hiemis
*Album: Ад Сонца Прэч [single]
*Year: 2018
*Genre: Folk/Black Metal/Ebm
*Country: Belarus (IMG:http://metalarea.org/forum/style_images/flags/Belarus.png)
*Format: mp3@CBR320kbps
*Size: 12MB

Tracklist:
1. Ад Сонца Прэч
******************************
Total playing time: 5:47

Technical info
(IMG:http://metalarea.org/images/spectrogram/2018_Aug/7345c866abe87323040a9f7764711336.png)
Input File: 01 - Ад Сонца Прэч.mp3
Channels : 2
Sample Rate : 48000
Precision : 16-bit
Duration : 00:05:47.52 = 16681104 samples ~ 26064.2 CDDA sectors
File Size : 14.0M
Bit Rate : 322k
Sample Encoding: MPEG audio (layer I, II or III)
Comments :
Title=Ад Сонца Прэч
Artist=Vapor Hiemis
Album=Ад Сонца Прэч (Single)
Tracknumber=1
Year=2018
Genre=Folk/Black Metal/EBM



Register


Go to the top of the page
  Insert nick Quick quote
+Quote Post
 
Start new topic
Replies (1 - 3)
post Sep 4 2018, 23:30:56
Post #2

Правь статус, ####!111
**************
Group: Металариец
Posts: 2,459
Releases: 11
From: Canada
On Forums: 12 years 11 months
Thanks: 1639 time(s)
Canada




Thanks:
(1) Storky,
Go to the top of the page
  Insert nick Quick quote
+Quote Post
post Sep 28 2018, 20:07:04
Post #3

добрый мизантроп
***********
Group: Металариец
Posts: 1,731
Releases: 0
From: Минск
On Forums: 9 years 6 months
Thanks: 838 time(s)
Madagascar


Индастриал/Pagan Black
По сравнению с альбомом со шмелем, сингл имеет более каноничную и качественную фолк-мелодику, да и в целом крепче сбит без натяжек.
Go to the top of the page
  Insert nick Quick quote
+Quote Post
post Sep 28 2018, 22:00:39
Post #4

Пять Литров
*****
Group: Металариец
Posts: 401
Releases: 8
From: UA
On Forums: 12 years 3 months
Thanks: 811 time(s)
Ukraine


(IMG:https://image.ibb.co/cjB5rp/vh.png)

vaporhiemis.bandcamp.com/releases

(IMG:style_emoticons/default/1488.gif)
Go to the top of the page
  Insert nick Quick quote
+Quote Post

Reply to this topicStart new topic
2 User(s) are reading this topic (2 Guests and 0 Anonymous Users)
0 Members:

 



- Lo-Fi Version Support form
Copyrights and abuse reports form
Time is now: 5th June 2020 - 19:26:43