Welcome Guest ( Log In | Register )

> И неформату есть предел.

Рэп/хип-хоп/шансон/поп удаляются. Для них есть свои порталы.

> B.C:A.D. - Seven Scrolls (2018), Occult Heavy/Doom Metal
post Aug 31 2018, 17:23:36
Post #1

Правь статус, ####!111
**************
Group: Металариец
Posts: 22,225
Releases: 15379
From: Г.Харьков
On Forums: 8 years 1 month
Thanks: 280910 time(s)
Unknown


(IMG:https://metalarea.org/images/audiocovers/2018_Aug/acov_tid310039_thumb.jpg)

*Artist: B.C:A.D.
*Album: Seven Scrolls
*Year: 2018
*Genre: Occult Heavy/Doom Metal
*Country: United States (IMG:https://metalarea.org/forum/style_images/flags/United%20States.png)
*Format: mp3@CBR320kbps
*Size: 104MB

Tracklist:
1. Hung Like Jesus 02:21
2. Thanatos 03:47
3. No Hope 03:34
4. Circle In Hell 02:59
5. Gypsy Eyes 03:36
6. Bastard 04:20
7. No Friend 05:16
8. You're Not Evil 06:52
9. Curse Of The Two Blind People 03:18
10. Nuns In Black Leather 02:31
11. Metal Anarchy 03:05
12. Let's Play God 02:20
******************************
Total playing time: 43:59




Extended info
Phil Swanson - Vocals
Simon Tuozzoli - Guitars & Bass / Drums* / Drum Programming **
Brian Harris - Drums


Technical info
(IMG:https://metalarea.org/images/spectrogram/2018_Aug/7db88e2f6dbae3e69328daf3d775119b.png)
Input File: B.C-A.D. - (B.C-A.D.) Seven Scrolls - 02 Thanatos.mp3
Channels : 2
Sample Rate : 44100
Precision : 16-bit
Duration : 00:03:47.57 = 10035617 samples = 17067.4 CDDA sectors
File Size : 9.35M
Bit Rate : 329k
Sample Encoding: MPEG audio (layer I, II or III)
Comments :
Title=Thanatos
Artist=B.C:A.D.
Album=(B.C:A.D.) Seven Scrolls
Tracknumber=2
Year=2018



Register


Go to the top of the page
  Insert nick Quick quote
+Quote Post
 
Start new topic
Replies (1 - 5)
post Aug 31 2018, 18:45:13
Post #2

Аннигилятор пивА
Group Icon
Group: V.I.P
Posts: 52,360
Releases: 16550
From: Koenigsberg - TILZIT
On Forums: 14 years 1 month
Thanks: 365521 time(s)
Russian Federation


(IMG:style_emoticons/default/15.gif) Ты там снова не выспался? какой в опу оккульт дум? это хоррор готик панк (Deathrock) утяжеленный типа металлик панк, (как металлик хардкор тока уклон в панк), ну хоть дэз метал не написал, у тебя же превью на фейсбук и бендкамп этих чуваков из Vestal Claret, вот там они играют, то, что ты написал, а это их панковый проект (b.c:a.d Features Simon Tuozzoli and Phil Swanson, both of long-running traditional occult metallers Vestal Claret, b.c:a.d is an old school punk / metal alternate universe time capsule offering that would of been more properly lost and forgotten in the 80s than the 2010s but in the spirit of better days past. )
Go to the top of the page
  Insert nick Quick quote
+Quote Post
post Aug 31 2018, 19:17:21
Post #3

Правь статус, ####!111
**************
Group: Металариец
Posts: 22,225
Releases: 15379
From: Г.Харьков
On Forums: 8 years 1 month
Thanks: 280910 time(s)
Unknown


ты только прочитал..а если еще послушаешь полностью альбом,ты если захочешь то услышишь-что никакого металик-хардкора-панка здесь нет и в помине!


Thanks:
(1) nunim,
Go to the top of the page
  Insert nick Quick quote
+Quote Post
post Aug 31 2018, 19:22:26
Post #4

Аннигилятор пивА
Group Icon
Group: V.I.P
Posts: 52,360
Releases: 16550
From: Koenigsberg - TILZIT
On Forums: 14 years 1 month
Thanks: 365521 time(s)
Russian Federation


ЦИТАТА(Samaritianin @ Aug 31 2018, 18:17:21) *
ты только прочитал..а если еще послушаешь полностью альбом,ты если захочешь то услышишь-что никакого металик-хардкора-панка здесь нет и в помине!

я-то послушал несколько дней назад, готик панк такой-сякой, а то мужики не в курсе че играют, ты инфу на Vestal Claret почитал (IMG:style_emoticons/default/1488.gif)
и хардкора тут точно нет, это гото панк-дэзрок слегка метализированный, учи мат-часть, в 80х такой наяривали последователи христиан дэз
Go to the top of the page
  Insert nick Quick quote
+Quote Post
post Nov 5 2019, 20:20:29
Post #5

melofags sniper
**************
Group: Металариец
Posts: 5,127
Releases: 0
From: Одеса
On Forums: 12 years 3 months
Thanks: 3947 time(s)
Ukraine


"Doom" (IMG:style_emoticons/default/1488.gif)
Go to the top of the page
  Insert nick Quick quote
+Quote Post
post Nov 7 2019, 22:39:48
Post #6

Правь статус, ####!111
**************
Group: Металариец
Posts: 2,596
Releases: 0
From: UK
On Forums: 4 years 1 week
Thanks: 237 time(s)
United Kingdom


Please can you reup
Go to the top of the page
  Insert nick Quick quote
+Quote Post

Reply to this topicStart new topic
1 User(s) are reading this topic (1 Guests and 0 Anonymous Users)
0 Members:

 



- Lo-Fi Version Support form
Copyrights and abuse reports form
Time is now: 2nd July 2020 - 10:16:35