Welcome Guest ( Log In | Register )

> Över - Facing Transcendence (2018), Atmospheric Black Metal
post Sep 3 2018, 23:27:37
Post #1

Правь статус, ####!111
**************
Group: Металариец
Posts: 19,102
Releases: 12898
From: Г.Харьков
On Forums: 7 years 5 months
Thanks: 221303 time(s)
Unknown


(IMG:https://metalarea.org/images/audiocovers/2018_Sep/acov_tid310185_thumb.jpg)

*Artist: Över
*Album: Facing Transcendence
*Year: 2018
*Genre: Atmospheric Black Metal
*Country: Unknown (IMG:https://metalarea.org/forum/style_images/flags/Unknown.png)
*Format: mp3@CBR320kbps
*Size: 103MB

Tracklist:
1. Philosophy (Supposed Truth) 06:30
2. Freedom of Paradigms 07:47
3. Will 09:33
4. Över is Transcendence 05:27
5. Owner and Slave 07:28
6. End of the Oppressive 07:56
******************************
Total playing time: 44:41



Extended info
International: United Kingdom / Ecuador


Technical info
(IMG:https://metalarea.org/images/spectrogram/2018_Sep/30d88570c7cd06028f2e6a64220d3a2d.png)
Input File: 02. Freedom of Paradigms.mp3
Channels : 2
Sample Rate : 44100
Precision : 16-bit
Duration : 00:07:47.59 = 20620895 samples = 35069.5 CDDA sectors
File Size : 18.9M
Bit Rate : 323k
Sample Encoding: MPEG audio (layer I, II or III)
Comments :
Title=Freedom Of Paradigms
Artist=Över
Album=Facing Transcendence
Tracknumber=02
Year=2018
Genre=Black Metal



Register


Go to the top of the page
  Insert nick Quick quote
+Quote Post
 
Start new topic
Replies (1 - 2)
post Sep 4 2018, 04:56:01
Post #2

Правь статус, ####!111
**************
Group: Металариец
Posts: 19,102
Releases: 12898
From: Г.Харьков
On Forums: 7 years 5 months
Thanks: 221303 time(s)
Unknown


Cloud Mail 320
Register


Go to the top of the page
  Insert nick Quick quote
+Quote Post
post Oct 9 2019, 14:54:06
Post #3

but I'm white and furry
**********
Group: Металариец
Posts: 1,224
Releases: 439
From: Москва
On Forums: 13 years 8 months
Thanks: 5474 time(s)
Russian Federation


ЦИТАТА(Samaritianin @ Sep 4 2018, 01:27:37) *
International: United Kingdom / Ecuador

А зачем тогда указывать Страна: Unknown, если они известны? Есть же в списке стран вариант, который именно так и звучит - International, именно для таких случаев
Go to the top of the page
  Insert nick Quick quote
+Quote Post

Reply to this topicStart new topic
2 User(s) are reading this topic (2 Guests and 0 Anonymous Users)
0 Members:

 



- Lo-Fi Version Support form
Copyrights and abuse reports form
Time is now: 22nd October 2019 - 07:08:54