Welcome Guest ( Log In | Register )

> Правила / Rules

Тут только для чтения лежат низкобитрейтные (<192kbps) релизы, для которых есть аналоги в высокобитрейтных форумах.

Here goes (and stand in read only mode) low bitrate releases (<192kbps) which were already replaced by high bitrate releases in corresponding forums.

> Grisly - The Spectral Wars (2018), Old School Death Metal
post Sep 6 2018, 05:23:34
Post #1

Аннигилятор пивА
Group Icon
Group: V.I.P
Posts: 48,850
Releases: 14950
From: Koenigsberg - TILZIT
On Forums: 12 years 3 months
Thanks: 327358 time(s)
Russian Federation


(IMG:https://metalarea.org/images/audiocovers/2018_Sep/acov_tid310243_thumb.jpg)

*Artist: Grisly
*Album: The Spectral Wars
*Year: 2018
*Genre: Old School Death Metal
*Country: Sweden (IMG:https://metalarea.org/forum/style_images/flags/Sweden.png)
*Format: mp3@CBR128kbps (IMG:https://metalarea.org/images/bit_low.gif)
*Size: 32MB

Tracklist:
01. Consumed from Beneath
02. Rot to the Living
03. Parasite Parasite
04. The Casket Eaters
05. Teeth That Rips
06. Bring out the Horrors
07. Supernatural Warfare
08. Sentenced to Armageddon
09. Into Insanity
10. The Spectral Wars
******************************
Total playing time: 35:32



Extended info



Technical info
(IMG:https://metalarea.org/images/spectrogram/2018_Sep/fdbf1ef6bd255fba43ef0e6b4fcdaaf3.png)
Input File: 02. Rot to the Living.mp3
Channels : 2
Sample Rate : 44100
Precision : 16-bit
Duration : 00:03:30.76 = 9294384 samples = 15806.8 CDDA sectors
File Size : 3.38M
Bit Rate : 128k
Sample Encoding: MPEG audio (layer I, II or III)
Comments :
Title=Rot to the Living
Artist=Grisly
Album=The Spectral Wars
Tracknumber=02
Year=2018
Genre=Death Metal



Register


Go to the top of the page
  Insert nick Quick quote
+Quote Post
 
Start new topic
Replies (1 - 3)
post Sep 6 2018, 06:24:01
Post #2

Аннигилятор пивА
Group Icon
Group: V.I.P
Posts: 48,850
Releases: 14950
From: Koenigsberg - TILZIT
On Forums: 12 years 3 months
Thanks: 327358 time(s)
Russian Federation


1st album by this swedish band leaded by Rogga Johansson that plays a catchy and rotting Death Metal with influences in the vein of AUTOPSY, BENEDICTION, GRAVE, MEMORIAM, ASPHYX...

MIRROR
Register



Thanks:
(1) jollo,
Go to the top of the page
  Insert nick Quick quote
+Quote Post
post Sep 7 2018, 20:50:43
Post #3

Crush The Enemies
**************
Group: Металариец
Posts: 4,130
Releases: 0
From: Moscow
On Forums: 9 years 2 weeks
Thanks: 2191 time(s)
Russian Federation



GRISLY is the new band coming out from the restless mind of swedish Deathmaster Rogga Johansson. The band has just recorded their debut album "The Spectral Wars" which caught the attention from Xtreem Music which signed them for an immediate release later this summer.

GRISLY emerged in 2014 after bassist Dennis Blomberg left PAGANIZER, but still kept rehearsing with Rogga and a local drummer called Henke Lundgren, with the simple intention of keeping the rotten flame of Death Metal burning.

P.S Опять наш НЕУТОМИМЫЙ решил поразить нас ЕЩЁ одним (IMG:style_emoticons/default/1488.gif) своим ШЕДЕВРОМ (IMG:style_emoticons/default/9.gif)

P.S Чуть не ПРОПУСТИЛИ (IMG:style_emoticons/default/1488.gif)


Thanks:
Go to the top of the page
  Insert nick Quick quote
+Quote Post
post Sep 12 2018, 09:17:42
Post #4

Два Литра
**
Group: Завсегдатай
Posts: 107
Releases: 0
From: Ukraine, Lviv
On Forums: 11 years 7 months
Thanks: 10 time(s)
Ukraine


Ого! Рогга неуемной енергии человек!
Go to the top of the page
  Insert nick Quick quote
+Quote Post

Причина закрытия (DarkHorde 12-09-2018): Grisly - The Spectral Wars (2018)
Closed TopicStart new topic
2 User(s) are reading this topic (2 Guests and 0 Anonymous Users)
0 Members:

 



- Lo-Fi Version Support form
Copyrights and abuse reports form
Time is now: 22nd September 2018 - 02:22:01