Welcome Guest ( Log In | Register )

> Silent Clash - Inner Lies (2018), Progressive Metal
post Sep 7 2018, 03:11:40
Post #1

Serial Uploader
Group Icon
Group: V.I.P
Posts: 37,124
Releases: 35308
From: Lithuania
On Forums: 11 years 11 months
Thanks: 419359 time(s)
Lithuania


(IMG:http://metalarea.org/images/audiocovers/2018_Sep/acov_tid310300_thumb.jpg)

*Artist: Silent Clash
*Album: Inner Lies
*Year: 2018
*Genre: Progressive Metal
*Country: Canada (IMG:http://metalarea.org/forum/style_images/flags/Canada.png)
*Format: mp3@CBR320kbps
*Size: 117MB

Tracklist:
01. Underground
02. Behind the Smile
03. Temptation
04. Crime of Humanity
05. Inequity
06. Now You're Gone
07. Insanity
08. Self Redemption
09. Against the Wind
******************************
Total playing time: 51:05



Technical info
(IMG:http://metalarea.org/images/spectrogram/2018_Sep/db4b170bdca81e6e10e941fc91946562.png)
Input File: 02. Behind the Smile.mp3
Channels : 2
Sample Rate : 44100
Precision : 16-bit
Duration : 00:06:38.31 = 17565647 samples = 29873.5 CDDA sectors
File Size : 15.9M
Bit Rate : 320k
Sample Encoding: MPEG audio (layer I, II or III)
Comments :
Title=Behind the Smile
Artist=Silent Clash
Album=Inner Lies
Tracknumber=2/9
Year=2018



Register


Go to the top of the page
  Insert nick Quick quote
+Quote Post
 
Start new topic
Replies (1 - 6)
post Sep 8 2018, 07:25:11
Post #2

hearer & reader
**************
Group: Металариец
Posts: 8,695
Releases: 140
From: Moscow
On Forums: 12 years 8 months
Thanks: 8728 time(s)
Russian Federation





Всё на уровне (IMG:style_emoticons/default/m0114.gif) Оригинально? Едва ли.
Go to the top of the page
  Insert nick Quick quote
+Quote Post
post Sep 11 2018, 07:59:01
Post #3

Правь статус, ####!111
**************
Group: Металариец
Posts: 2,459
Releases: 11
From: Canada
On Forums: 12 years 11 months
Thanks: 1639 time(s)
Canada




Thanks:
(1) Shadowman,
Go to the top of the page
  Insert nick Quick quote
+Quote Post
post Sep 11 2018, 10:56:31
Post #4

21st Century Schizoid Man
**************
Group: Металариец
Posts: 6,453
Releases: 79
From: Moscow
On Forums: 12 years 3 weeks
Thanks: 5301 time(s)
Russian Federation


Очень неплохо. Приятный высокий вокал. Риффовка доставляет.
Go to the top of the page
  Insert nick Quick quote
+Quote Post
post Sep 11 2018, 11:42:15
Post #5

на аватаре не я
**************
Group: Металариец
Posts: 4,962
Releases: 7
From: "Самопровозглашенная ДНР" (с)
On Forums: 10 years 10 months
Thanks: 2500 time(s)
Russian Federation


Yarri, Хоть ты мне объясни, что означает слово "риффовка"? )
Go to the top of the page
  Insert nick Quick quote
+Quote Post
post Sep 11 2018, 19:01:58
Post #6

21st Century Schizoid Man
**************
Group: Металариец
Posts: 6,453
Releases: 79
From: Moscow
On Forums: 12 years 3 weeks
Thanks: 5301 time(s)
Russian Federation


Я слова попутал. Клавишные мне понравились. (IMG:style_emoticons/default/18.gif)
Go to the top of the page
  Insert nick Quick quote
+Quote Post
post Sep 16 2018, 13:13:24
Post #7

21st Century Schizoid Man
**************
Group: Металариец
Posts: 6,453
Releases: 79
From: Moscow
On Forums: 12 years 3 weeks
Thanks: 5301 time(s)
Russian Federation


Не, слишком много Dream Theater.
Go to the top of the page
  Insert nick Quick quote
+Quote Post

Reply to this topicStart new topic
2 User(s) are reading this topic (2 Guests and 0 Anonymous Users)
0 Members:

 



- Lo-Fi Version Support form
Copyrights and abuse reports form
Time is now: 30th May 2020 - 23:26:52