Welcome Guest ( Log In | Register )

> Ancestral Shadows - Haunting New England (Live In New Hampshire '15) [live] (2015), Black Metal
post Sep 8 2018, 15:46:52
Post #1

Правь статус, ####!111
Group Icon
Group: S-moderation team
Posts: 22,058
Releases: 1443
On Forums: 11 years 6 months
Thanks: 112910 time(s)
Unknown


(IMG:http://metalarea.org/images/audiocovers/2018_Sep/acov_tid310355_thumb.jpg)

*Artist: Ancestral Shadows
*Album: Haunting New England (Live In New Hampshire '15) [live]
*Year: 2015
*Genre: Black Metal
*Country: United States (IMG:http://metalarea.org/forum/style_images/flags/United%20States.png)
*Format: mp3@CBR320kbps
*Size: 86MB

Tracklist:
1. The Sorrow of Centuries Past 08:19
2. The Dead Whispers of a Black Autumn 07:52
3. The Triumph of Iron Will / I Reflect in Isolation at Dusk 10:34
4. Cry from an Ancient World 07:30
5. Alone (Goatmoon cover) 03:04
******************************
Total playing time: 37:19

Technical info
(IMG:http://metalarea.org/images/spectrogram/2018_Sep/f555319f9095a4245209e288c66f698d.png)
Input File: 01 The Sorrow of Centuries Past (Live).mp3
Channels : 2
Sample Rate : 44100
Precision : 16-bit
Duration : 00:08:19.52 = 22028744 samples = 37463.9 CDDA sectors
File Size : 20.1M
Bit Rate : 322k
Sample Encoding: MPEG audio (layer I, II or III)
Comments :
Title=The Sorrow Of Centuries Past
Artist=Ancestral Shadows
Album=Haunting New England (Live In New Hampshire) [Live]
Tracknumber=1
Year=2015



Register


Go to the top of the page
  Insert nick Quick quote
+Quote Post
 
Start new topic
Replies (1 - 2)
post Sep 10 2018, 20:47:24
Post #2

Group: Подсевший
Posts: 20
Releases: 0
On Forums: 4 years 11 months
Thanks: 2 time(s)
United States


Mirror please?
Go to the top of the page
  Insert nick Quick quote
+Quote Post
post Jul 1 2021, 14:37:42
Post #3

Правь статус, ####!111
**************
Group: Металариец
Posts: 5,480
Releases: 588
From: MoscoW
On Forums: 15 years 9 months
Thanks: 9172 time(s)
Russian Federation


ANCESTRAL SHADOWS:
Go to the top of the page
  Insert nick Quick quote
+Quote Post

Reply to this topicStart new topic
1 User(s) are reading this topic (1 Guests and 0 Anonymous Users)
0 Members:

 



- Lo-Fi Version Support form
Copyrights and abuse reports form
Time is now: 25th September 2022 - 09:06:00