Welcome Guest ( Log In | Register )

> Ode Sakura - Chaotic Withering (2018), Melodic Death Metal
post Sep 10 2018, 18:41:53
Post #1

Маньяк
**********
Group: Металариец
Posts: 1,049
Releases: 881
From: Новороссийск
On Forums: 8 years 8 months
Thanks: 16075 time(s)
Russian Federation


(IMG:https://metalarea.org/images/audiocovers/2018_Sep/acov_tid310449_thumb.jpg)

*Artist: Ode Sakura
*Album: Chaotic Withering
*Year: 2018
*Genre: Melodic Death Metal
*Country: Russian Federation (IMG:https://metalarea.org/forum/style_images/flags/Russian%20Federation.png)
*Format: mp3@CBR320kbps
*Size: 93MB

Tracklist:
01. Pain 03:37
02. Miasma 05:13
03. Depth Of The Night 04:17
04. Funeral March 04:21
05. Fall Into Grey 04:52
06. Dreamfall 04:29
07. Frames Collision 04:58
08. Isolation Complex 03:15
09. Chaos Within 05:36
******************************
Total playing time: 40:41



Preview 3

Extended info


Technical info
(IMG:https://metalarea.org/images/spectrogram/2018_Sep/14d1a60f6bbec2d0285b6469e28eae52.png)
Input File: 01. Pain.mp3
Channels : 2
Sample Rate : 44100
Precision : 16-bit
Duration : 00:03:37.09 = 9573757 samples = 16281.9 CDDA sectors
File Size : 8.69M
Bit Rate : 320k
Sample Encoding: MPEG audio (layer I, II or III)
Comments :
Title=Pain
Artist=Ode Sakura
Album=Chaotic Withering
Tracknumber=01
Year=2018
Genre=Death Metal



Register


Go to the top of the page
  Insert nick Quick quote
+Quote Post
 
Start new topic
Replies (1 - 5)
post Sep 11 2018, 09:51:36
Post #2

Тридцать лет на борту "Тяжёлого" крейсера
**************
Group: Металариец
Posts: 2,145
Releases: 0
From: Питер
On Forums: 12 years 7 months
Thanks: 564 time(s)
Russian Federation


Материал неплох...но пластиковые барабасы, не иначе как софтовые
и общий саунд ближе к домашнему


Thanks:
(1) Metalass,
Go to the top of the page
  Insert nick Quick quote
+Quote Post
post Sep 11 2018, 10:22:35
Post #3

Четыре Литра
****
Group: Металариец
Posts: 301
Releases: 4
On Forums: 12 years 9 months
Thanks: 244 time(s)
Russian Federation


ЦИТАТА(sadmannn @ Sep 11 2018, 11:51:36) *
Материал неплох...но пластиковые барабасы, не иначе как софтовые
и общий саунд ближе к домашнему


теплому и ламповому.

Вставки каких-то денс ритмов удивили (IMG:style_emoticons/default/22.gif)

а вот Isolation Complex понравилась, олдом повеяло
Go to the top of the page
  Insert nick Quick quote
+Quote Post
post Sep 12 2018, 06:02:34
Post #4

Правь статус, ####!111
**************
Group: Металариец
Posts: 2,803
Releases: 8
From: Dnipro
On Forums: 11 years 6 months
Thanks: 888 time(s)
Ukraine


Местами не плохо, но не более.
Go to the top of the page
  Insert nick Quick quote
+Quote Post
post Sep 30 2018, 14:40:17
Post #5

Перевозчик
**************
Group: Металариец
Posts: 3,092
Releases: 0
On Forums: 11 years 6 months
Thanks: 680 time(s)
Russian Federation


Миазмы... Тут не поспоришь.
Go to the top of the page
  Insert nick Quick quote
+Quote Post
post Apr 12 2019, 08:09:49
Post #6

Правь статус, ####!111
**************
Group: Металариец
Posts: 2,386
Releases: 34
From: Nakhodka
On Forums: 9 years 7 months
Thanks: 2107 time(s)
Russian Federation




Go to the top of the page
  Insert nick Quick quote
+Quote Post

Reply to this topicStart new topic
1 User(s) are reading this topic (1 Guests and 0 Anonymous Users)
0 Members:

 



- Lo-Fi Version Support form
Copyrights and abuse reports form
Time is now: 18th January 2020 - 16:13:07