Welcome Guest ( Log In | Register )

> Releases Upload / Добавление релизов

Добавить релиз тут / Click here to add release
Рекомендованные обменники / Recommended file shares

> Tormental - Signs Of Decay [ep] (2018), Progressive Black/Death Metal
post Sep 11 2018, 19:56:33
Post #1

Аннигилятор пивА
Group Icon
Group: V.I.P
Posts: 48,828
Releases: 14936
From: Koenigsberg - TILZIT
On Forums: 12 years 3 months
Thanks: 327223 time(s)
Russian Federation


(IMG:https://metalarea.org/images/audiocovers/2018_Sep/acov_tid310477_thumb.jpg)

*Artist: Tormental
*Album: Signs Of Decay [ep]
*Year: 2018
*Genre: Progressive Black/Death Metal
*Country: Mexico (IMG:https://metalarea.org/forum/style_images/flags/Mexico.png)
*Format: mp3@CBR320kbps
*Size: 53MB

Tracklist:
1. Kowloon 06:47
2. Massive Endless Black 06:38
3. Keep Only Memories 04:59
4. Tremors 04:52
******************************
Total playing time: 23:16




Extended info
MF RZT - Voz
Ro Montalvo- Guitarra
Anders Ramírez- Guitarra
Rex Sanchez- Bajo
Axel Sandoval - Batería


Technical info
(IMG:https://metalarea.org/images/spectrogram/2018_Sep/23aea510a249b236df227f2a5bc9dc68.png)
Input File: Tormental - Signs of Decay - 03 Keep Only Memories.mp3
Channels : 2
Sample Rate : 44100
Precision : 16-bit
Duration : 00:04:59.59 = 13211831 samples = 22469.1 CDDA sectors
File Size : 12.2M
Bit Rate : 326k
Sample Encoding: MPEG audio (layer I, II or III)
Comments :
Title=Keep Only Memories
Artist=Tormental
Album=Signs of Decay
Tracknumber=3
Year=2018



Register


Thanks:
Go to the top of the page
  Insert nick Quick quote
+Quote Post
 
Start new topic
Replies (1 - 1)
post Sep 14 2018, 13:53:01    Сейчас играет: Encircling Sea - Everoak
Post #2

antithesis
**************
Group: Металариец
Posts: 2,308
Releases: 28
From: VRN
On Forums: 8 years 3 months
Thanks: 1206 time(s)
Russian Federation


mirror, pls
Go to the top of the page
  Insert nick Quick quote
+Quote Post

Reply to this topicStart new topic
2 User(s) are reading this topic (2 Guests and 0 Anonymous Users)
0 Members:

 



- Lo-Fi Version Support form
Copyrights and abuse reports form
Time is now: 21st September 2018 - 08:34:37