Welcome Guest ( Log In | Register )

> Releases Upload / Добавление релизов

Добавить релиз тут / Click here to add release
Рекомендованные обменники / Recommended file shares

> Blutfahne & Walsung - Transcendental Creation [split] (2018), Black Metal | Black Metal
post Sep 12 2018, 01:39:49
Post #1

Правь статус, ####!111
**************
Group: Металариец
Posts: 3,298
Releases: 643
From: Brazil
On Forums: 6 years 7 months
Thanks: 25555 time(s)
Brazil


(IMG:https://metalarea.org/images/audiocovers/2018_Sep/acov_tid310489_thumb.jpg)

*Artist: Blutfahne & Walsung
*Album: Transcendental Creation [split]
*Year: 2018
*Genre: Black Metal | Black Metal
*Country: Ukraine (IMG:https://metalarea.org/forum/style_images/flags/Ukraine.png) | Brazil (IMG:https://metalarea.org/forum/style_images/flags/Brazil.png)
*Format: mp3@CBR320kbps
*Size: 112MB

Tracklist:
Blutfahne:
1. Last Breath 02:42
2. Steel of the Sky 06:58
3. Roads of the Dead 10:10
4. Fatherland 04:49
Walsung:
5. Intro (Live to Fight) 02:13
6. Spectral Renovation 04:12
7. The Call of the Owl 05:39
8. Autumn Aurora 05:38
9. Wilderness 05:53
******************************
Total playing time: 48:14



Technical info
(IMG:https://metalarea.org/images/spectrogram/2018_Sep/0c216bc9b7a0b22e393ad78e674de0d8.png)
Input File: 05. Walsung - Intro (Live to Fight).mp3
Channels : 2
Sample Rate : 44100
Precision : 16-bit
Duration : 00:02:13.07 = 5868607 samples = 9980.62 CDDA sectors
File Size : 5.32M
Bit Rate : 320k
Sample Encoding: MPEG audio (layer I, II or III)
Comments :
Title=Intro (Live to Fight)
Artist=Walsung
Album=Transcendental Creation
Tracknumber=5
Year=2018



Register


Go to the top of the page
  Insert nick Quick quote
+Quote Post
 
Start new topic
Replies (1 - 3)
post Sep 12 2018, 15:54:16
Post #2

Group: Подсевший
Posts: 22
Releases: 0
On Forums: 12 years 10 months
Thanks: 1 time(s)
Russian Federation


Буду благодарен за другой обменник.
Go to the top of the page
  Insert nick Quick quote
+Quote Post
post Sep 14 2018, 13:58:19    Сейчас играет: Encircling Sea - Sunhelm
Post #3

antithesis
**************
Group: Металариец
Posts: 2,308
Releases: 28
From: VRN
On Forums: 8 years 3 months
Thanks: 1206 time(s)
Russian Federation


ЦИТАТА(Gudas @ Sep 12 2018, 19:54:16) *
Буду благодарен за другой обменник.

Register


Thanks:
Go to the top of the page
  Insert nick Quick quote
+Quote Post
post Sep 16 2018, 10:54:06
Post #4

Литр
*
Group: Подсевший
Posts: 77
Releases: 0
From: Valencia, Spain
On Forums: 12 years 10 months
Thanks: 25 time(s)
Ukraine


Кстати, отличный сплит с яркими треками как у Blutfahne, так и Walsung. У бразильцев удивил трек чистою українською мовою (Spectral Renovation).
Go to the top of the page
  Insert nick Quick quote
+Quote Post

Reply to this topicStart new topic
2 User(s) are reading this topic (2 Guests and 0 Anonymous Users)
0 Members:

 



- Lo-Fi Version Support form
Copyrights and abuse reports form
Time is now: 21st September 2018 - 09:04:58