Welcome Guest ( Log In | Register )

> Releases Upload / Добавление релизов

Добавить релиз тут / Click here to add release
Рекомендованные обменники / Recommended file shares

> North Black - Tårer Av Skogen (2018), Atmospheric Black Metal
post Sep 12 2018, 06:31:03
Post #1

Восемь Литров
********
Group: Металариец
Posts: 818
Releases: 686
From: Новороссийск
On Forums: 7 years 4 months
Thanks: 11603 time(s)
Russian Federation


(IMG:https://metalarea.org/images/audiocovers/2018_Sep/acov_tid310493_thumb.jpg)

*Artist: North Black
*Album: Tårer Av Skogen
*Year: 2018
*Genre: Atmospheric Black Metal
*Country: Russian Federation (IMG:https://metalarea.org/forum/style_images/flags/Russian%20Federation.png)
*Format: mp3@CBR320kbps
*Size: 126MB

Tracklist:
01. Visjoner Av Arten 09:36
02. I Deg Hele Naturen 07:42
03. Berør Uten Strøm 03:44
04. Tårer Av Skogen 08:22
Bonus:
05. Visjoner Av Arten (Instrumental Synth version) 09:36
06. I Deg Hele Naturen (Instrumental Synth version) 07:42
07. Tårer Av Skogen (Instrumental Synth version) 08:22
******************************
Total playing time: 55:06



Technical info
(IMG:https://metalarea.org/images/spectrogram/2018_Sep/a4486a3383a927aad475b9d0c8556253.png)
Input File: 01. Visjoner Av Arten.mp3
Channels : 2
Sample Rate : 48000
Precision : 16-bit
Duration : 00:09:36.00 = 27648144 samples ~ 43200.2 CDDA sectors
File Size : 23.0M
Bit Rate : 320k
Sample Encoding: MPEG audio (layer I, II or III)
Comments :
Title=Visjoner Av Arten
Artist=North Black
Album=Tårer Av Skogen
Tracknumber=01
Year=2018
Genre=Black Metal



Register


Go to the top of the page
  Insert nick Quick quote
+Quote Post
 
Start new topic
Replies (1 - 3)
post Sep 12 2018, 09:04:52
Post #2

Маньяк
**********
Group: Металариец
Posts: 1,102
Releases: 0
From: Russian Federation - St.Petersburg
On Forums: 9 years 6 months
Thanks: 243 time(s)
Russian Federation


Красивый музон! (IMG:style_emoticons/default/smile4.gif)
Go to the top of the page
  Insert nick Quick quote
+Quote Post
post Sep 14 2018, 14:02:50    Сейчас играет: Encircling Sea - Sunhelm
Post #3

antithesis
**************
Group: Металариец
Posts: 2,308
Releases: 28
From: VRN
On Forums: 8 years 3 months
Thanks: 1206 time(s)
Russian Federation


mirror, pls
Go to the top of the page
  Insert nick Quick quote
+Quote Post
post Sep 14 2018, 17:48:14
Post #4

Восемь Литров
********
Group: Металариец
Posts: 818
Releases: 686
From: Новороссийск
On Forums: 7 years 4 months
Thanks: 11603 time(s)
Russian Federation


ЦИТАТА(Razorbladeswaltz @ Sep 14 2018, 14:02:50) *
mirror, pls

Ссылку добавил в теме.


Thanks:
Go to the top of the page
  Insert nick Quick quote
+Quote Post

Reply to this topicStart new topic
2 User(s) are reading this topic (2 Guests and 0 Anonymous Users)
0 Members:

 



- Lo-Fi Version Support form
Copyrights and abuse reports form
Time is now: 21st September 2018 - 08:47:15