Welcome Guest ( Log In | Register )

> Releases Upload / Добавление релизов

Добавить релиз тут / Click here to add release
Рекомендованные обменники / Recommended file shares

> Help Me To Escape - Planets (2018), Progressive Death Metal
post Sep 13 2018, 08:04:05
Post #1

Аннигилятор пивА
Group Icon
Group: V.I.P
Posts: 48,833
Releases: 14936
From: Koenigsberg - TILZIT
On Forums: 12 years 3 months
Thanks: 327229 time(s)
Russian Federation


(IMG:http://metalarea.org/images/audiocovers/2018_Sep/acov_tid310532_thumb.jpg)

*Artist: Help Me To Escape
*Album: Planets
*Year: 2018
*Genre: Progressive Death Metal
*Country: Russian Federation (IMG:http://metalarea.org/forum/style_images/flags/Russian%20Federation.png)
*Format: mp3@CBR320kbps
*Size: 80MB

Tracklist:
01. Sunshine
02. Vertigo
03. Color Blindness
04. Crossbreeding
05. Violence
06. Planets
07. Stillborn
08. Outro
******************************
Total playing time: 35:09

Extended info




Technical info
(IMG:http://metalarea.org/images/spectrogram/2018_Sep/1cf85636e24a3d5d08ca9f92bcdb7dc3.png)
Input File: 02. Vertigo.mp3
Channels : 2
Sample Rate : 44100
Precision : 16-bit
Duration : 00:04:09.67 = 11010403 samples = 18725.2 CDDA sectors
File Size : 9.99M
Bit Rate : 320k
Sample Encoding: MPEG audio (layer I, II or III)
Comments :
Title=Vertigo
Artist=Help Me to Escape
Album=Planets
Tracknumber=2/8
Year=2018



Register


Thanks:
Go to the top of the page
  Insert nick Quick quote
+Quote Post
 
Start new topic
Replies (1 - 6)
post Sep 14 2018, 07:31:12
Post #2

Аннигилятор пивА
Group Icon
Group: V.I.P
Posts: 48,833
Releases: 14936
From: Koenigsberg - TILZIT
On Forums: 12 years 3 months
Thanks: 327229 time(s)
Russian Federation


mirror
Register


Thanks:
(2) csgmnk, Guns,
Go to the top of the page
  Insert nick Quick quote
+Quote Post
post Sep 14 2018, 09:45:45
Post #3

Два Литра
**
Group: Завсегдатай
Posts: 145
Releases: 0
On Forums: 7 years 2 months
Thanks: 94 time(s)
Russian Federation


И давно у нас Калининградская область в состав Штатов входит? (IMG:style_emoticons/default/1488.gif)
Go to the top of the page
  Insert nick Quick quote
+Quote Post
post Sep 14 2018, 11:02:43
Post #4

Два Литра
**
Group: Завсегдатай
Posts: 145
Releases: 0
On Forums: 7 years 2 months
Thanks: 94 time(s)
Russian Federation


Не, мне больше нравилось, когда эстетик считал, что я из США (IMG:style_emoticons/default/6.gif) Надо было молчать в тряпочку
Go to the top of the page
  Insert nick Quick quote
+Quote Post
post Sep 14 2018, 12:26:12
Post #5

Аннигилятор пивА
Group Icon
Group: V.I.P
Posts: 48,833
Releases: 14936
From: Koenigsberg - TILZIT
On Forums: 12 years 3 months
Thanks: 327229 time(s)
Russian Federation


ЦИТАТА(BullBulator @ Sep 14 2018, 10:02:43) *
Не, мне больше нравилось, когда эстетик считал, что я из США (IMG:style_emoticons/default/6.gif) Надо было молчать в тряпочку

а вот кто за язык-то тянул? обратно переставить? (IMG:style_emoticons/default/1488.gif)


Thanks:
Go to the top of the page
  Insert nick Quick quote
+Quote Post
post Sep 14 2018, 12:28:09
Post #6

Два Литра
**
Group: Завсегдатай
Posts: 145
Releases: 0
On Forums: 7 years 2 months
Thanks: 94 time(s)
Russian Federation


ЦИТАТА(aesteticvice @ Sep 14 2018, 14:26:12) *
а вот кто за язык-то тянул? обратно переставить? (IMG:style_emoticons/default/1488.gif)

Да ладно уж, оставь)
Go to the top of the page
  Insert nick Quick quote
+Quote Post
post Sep 14 2018, 15:48:28
Post #7

Group: Дух
Posts: 2
Releases: 0
From: Рязань
On Forums: 2 years 2 months
Thanks: 1 time(s)
Russian Federation


Что то не Anathema не похоже...
Go to the top of the page
  Insert nick Quick quote
+Quote Post

Reply to this topicStart new topic
2 User(s) are reading this topic (2 Guests and 0 Anonymous Users)
0 Members:

 



- Lo-Fi Version Support form
Copyrights and abuse reports form
Time is now: 21st September 2018 - 10:17:30