Welcome Guest ( Log In | Register )

> Releases Upload / Добавление релизов

Добавить релиз тут / Click here to add release
Рекомендованные обменники / Recommended file shares

> Conan - Existential Void Guardian (2018), Stoner/Doom Metal
post Sep 13 2018, 11:56:44
Post #1

Аннигилятор пивА
Group Icon
Group: V.I.P
Posts: 48,881
Releases: 14964
From: Koenigsberg - TILZIT
On Forums: 12 years 3 months
Thanks: 327597 time(s)
Russian Federation


(IMG:https://metalarea.org/images/audiocovers/2018_Sep/acov_tid310544_thumb.jpg)

*Artist: Conan
*Album: Existential Void Guardian
*Year: 2018
*Genre: Stoner/Doom Metal
*Country: United Kingdom (IMG:https://metalarea.org/forum/style_images/flags/United%20Kingdom.png)
*Format: mp3@CBR320kbps
*Size: 143MB

Tracklist:
01. Prosper on the Path
02. Eye to Eye to Eye
03. Paincantation
04. Amidst the Infinite
05. Volt Thrower
06. Vexxagon
07. Eternal Silent Legend
08. Total Conquest (Live)
09. Satsumo (Live)
10. Foehammer (Live)
11. Hawk as Weapon (Live)
******************************
Total playing time: 58:03



Extended info


Technical info
(IMG:https://metalarea.org/images/spectrogram/2018_Sep/11baa137bd165ce57bbee7691df75915.png)
Input File: 02. Eye to Eye to Eye.mp3
Channels : 2
Sample Rate : 44100
Precision : 16-bit
Duration : 00:05:15.21 = 13900761 samples = 23640.8 CDDA sectors
File Size : 13.3M
Bit Rate : 338k
Sample Encoding: MPEG audio (layer I, II or III)
Comments :
Title=Eye to Eye to Eye
Artist=Conan
Album=Existential Void Guardian
Tracknumber=2/11
Year=2018
Discnumber=1/1



Register


Go to the top of the page
  Insert nick Quick quote
+Quote Post
 
Start new topic
Replies (1 - 2)
post Sep 13 2018, 12:57:24
Post #2

Аннигилятор пивА
Group Icon
Group: V.I.P
Posts: 48,881
Releases: 14964
From: Koenigsberg - TILZIT
On Forums: 12 years 3 months
Thanks: 327597 time(s)
Russian Federation


MIRROR
Register




Go to the top of the page
  Insert nick Quick quote
+Quote Post
post Sep 13 2018, 13:05:46
Post #3

Два Литра
**
Group: Завсегдатай
Posts: 107
Releases: 0
From: Ukraine, Lviv
On Forums: 11 years 7 months
Thanks: 10 time(s)
Ukraine


КуртЇ
Go to the top of the page
  Insert nick Quick quote
+Quote Post

Reply to this topicStart new topic
1 User(s) are reading this topic (1 Guests and 0 Anonymous Users)
0 Members:

 



- Lo-Fi Version Support form
Copyrights and abuse reports form
Time is now: 23rd September 2018 - 03:12:57