Welcome Guest ( Log In | Register )

> Conan - Existential Void Guardian (2018), Stoner/Doom Metal
post Sep 13 2018, 11:56:44
Post #1

Аннигилятор пивА
Group Icon
Group: V.I.P
Posts: 51,573
Releases: 16203
From: Koenigsberg - TILZIT
On Forums: 12 years 7 months
Thanks: 352468 time(s)
Russian Federation


(IMG:https://metalarea.org/images/audiocovers/2018_Sep/acov_tid310544_thumb.jpg)

*Artist: Conan
*Album: Existential Void Guardian
*Year: 2018
*Genre: Stoner/Doom Metal
*Country: United Kingdom (IMG:https://metalarea.org/forum/style_images/flags/United%20Kingdom.png)
*Format: mp3@CBR320kbps
*Size: 143MB

Tracklist:
01. Prosper on the Path
02. Eye to Eye to Eye
03. Paincantation
04. Amidst the Infinite
05. Volt Thrower
06. Vexxagon
07. Eternal Silent Legend
08. Total Conquest (Bonus Live)
09. Satsumo (Bonus Live)
10. Foehammer (Bonus Live)
11. Hawk as Weapon (Bonus Live)
******************************
Total playing time: 58:03



Extended info


Technical info
(IMG:https://metalarea.org/images/spectrogram/2018_Sep/11baa137bd165ce57bbee7691df75915.png)
Input File: 02. Eye to Eye to Eye.mp3
Channels : 2
Sample Rate : 44100
Precision : 16-bit
Duration : 00:05:15.21 = 13900761 samples = 23640.8 CDDA sectors
File Size : 13.3M
Bit Rate : 338k
Sample Encoding: MPEG audio (layer I, II or III)
Comments :
Title=Eye to Eye to Eye
Artist=Conan
Album=Existential Void Guardian
Tracknumber=2/11
Year=2018
Discnumber=1/1



Register


Go to the top of the page
  Insert nick Quick quote
+Quote Post
 
Start new topic
Replies (1 - 5)
post Sep 13 2018, 12:57:24
Post #2

Аннигилятор пивА
Group Icon
Group: V.I.P
Posts: 51,573
Releases: 16203
From: Koenigsberg - TILZIT
On Forums: 12 years 7 months
Thanks: 352468 time(s)
Russian Federation


MIRROR
Register




Go to the top of the page
  Insert nick Quick quote
+Quote Post
post Sep 13 2018, 13:05:46
Post #3

Два Литра
**
Group: Завсегдатай
Posts: 112
Releases: 0
From: Ukraine, Lviv
On Forums: 11 years 11 months
Thanks: 11 time(s)
Ukraine


КуртЇ
Go to the top of the page
  Insert nick Quick quote
+Quote Post
post Dec 8 2018, 13:59:53
Post #4

Пять Литров
*****
Group: Металариец
Posts: 408
Releases: 0
From: г.Таганрог
On Forums: 12 years 9 months
Thanks: 72 time(s)
Russian Federation


Из комментов ничего не понятно....Стоит слушать или нет?

ЦИТАТА(Grindbox @ Sep 13 2018, 15:05:46) *
КуртЇ

Ты сам понимаешь, что написал???
Go to the top of the page
  Insert nick Quick quote
+Quote Post
post Dec 8 2018, 14:42:32
Post #5

Попсовик от брутала
**************
Group: Металариец
Posts: 6,479
Releases: 62
From: Минск
On Forums: 10 years 1 month
Thanks: 5378 time(s)
Belarus


ЦИТАТА(NecroDeath @ 8th December 2018 - 15:59:53) *
Стоит слушать или нет?

В обязу.
Go to the top of the page
  Insert nick Quick quote
+Quote Post
post Dec 8 2018, 15:04:47
Post #6

Пять Литров
*****
Group: Металариец
Posts: 408
Releases: 0
From: г.Таганрог
On Forums: 12 years 9 months
Thanks: 72 time(s)
Russian Federation


ЦИТАТА(Tular @ Dec 8 2018, 16:42:32) *
В обязу.

ok
Go to the top of the page
  Insert nick Quick quote
+Quote Post

Reply to this topicStart new topic
2 User(s) are reading this topic (2 Guests and 0 Anonymous Users)
0 Members:

 



- Lo-Fi Version Support form
Copyrights and abuse reports form
Time is now: 23rd January 2019 - 06:52:50