Welcome Guest ( Log In | Register )

> Releases Upload / Добавление релизов

Добавить релиз тут / Click here to add release
Рекомендованные обменники / Recommended file shares

> Bosse-De-Nage - Further Still (2018), Experimental Black Metal
post Sep 13 2018, 12:18:44
Post #1

Detective Godzilla
**************
Group: Металариец
Posts: 2,566
Releases: 186
On Forums: 7 years 7 months
Thanks: 5509 time(s)
Russian Federation


(IMG:https://metalarea.org/images/audiocovers/2018_Sep/acov_tid310546_thumb.jpg)

*Artist: Bosse-De-Nage
*Album: Further Still
*Year: 2018
*Genre: Experimental Black Metal
*Country: United States (IMG:https://metalarea.org/forum/style_images/flags/United%20States.png)
*Format: mp3@CBR320kbps
*Size: 104MB

Tracklist:
1. The Trench 05:10
2. Down Here 03:48
3. Crux 03:57
4. Listless 04:17
5. Dolorous Interlude 03:52
6. My Shroud 06:23
7. Sword Swallower 04:20
8. Vestiges 05:03
9. A Faraway Place 06:53
******************************
Total playing time: 43:43



Technical info
(IMG:https://metalarea.org/images/spectrogram/2018_Sep/9f2b9e6b65c8d78b4be2b1eced8832ed.png)
Input File: 03 Crux.mp3
Channels : 2
Sample Rate : 44100
Precision : 16-bit
Duration : 00:03:58.04 = 10497564 samples = 17853 CDDA sectors
File Size : 9.86M
Bit Rate : 331k
Sample Encoding: MPEG audio (layer I, II or III)
Comments :
Title=Crux
Artist=Bosse-de-Nage
Album=Further Still
Tracknumber=3/9
Year=2018
Genre=Metal
Discnumber=1/1



Register


Go to the top of the page
  Insert nick Quick quote
+Quote Post
 
Start new topic
Replies (1 - 5)
post Sep 13 2018, 15:22:44
Post #2

Правь статус, ####!111
**************
Group: Металариец
Posts: 2,729
Releases: 727
On Forums: 8 years 2 days
Thanks: 9585 time(s)
Ukraine


О, образцовый блэковый пост-хардкор. В прицнипе, как и раньше у них очень классно сплетаются атмосферик блэк, пост-хк и пост-метал, сочно, мрачно.
Go to the top of the page
  Insert nick Quick quote
+Quote Post
post Sep 13 2018, 15:33:14
Post #3

Detective Godzilla
**************
Group: Металариец
Posts: 2,566
Releases: 186
On Forums: 7 years 7 months
Thanks: 5509 time(s)
Russian Federation


KoreanGringo, Я ещё по синглам понял, что будет пушка. И как увидел, постарался быстрее на MA перезалить рипец, что в сеть уплыл.

Повторюсь: альбом крутой. Очень доволен тем, как они вектор музыкальный удерживают и просто-напросто хороши.
Go to the top of the page
  Insert nick Quick quote
+Quote Post
post Sep 13 2018, 16:53:42
Post #4

стазис эпидерсис
***********
Group: Металариец
Posts: 1,953
Releases: 0
On Forums: 2 years 7 months
Thanks: 1206 time(s)
Unknown


ля, попробую в очередной раз.

непонятный(матЪэксперименталЪсумбурЪультравйлэнс) и утяжелённый пост - хардкор.

не получилось в очередной раз.
Go to the top of the page
  Insert nick Quick quote
+Quote Post
post Sep 13 2018, 19:08:44
Post #5

Девять Литров
*********
Group: Металариец
Posts: 971
Releases: 37
From: великий город Питер
On Forums: 12 years 9 months
Thanks: 1780 time(s)
Russian Federation


experimental не замечено....
Go to the top of the page
  Insert nick Quick quote
+Quote Post
post Sep 13 2018, 20:06:14
Post #6

Detective Godzilla
**************
Group: Металариец
Posts: 2,566
Releases: 186
On Forums: 7 years 7 months
Thanks: 5509 time(s)
Russian Federation


AlexCrazy, Так, расскажи теперь особенности жанровых паттернов такого тега, как экспериментал.
Go to the top of the page
  Insert nick Quick quote
+Quote Post

Reply to this topicStart new topic
1 User(s) are reading this topic (1 Guests and 0 Anonymous Users)
0 Members:

 



- Lo-Fi Version Support form
Copyrights and abuse reports form
Time is now: 23rd September 2018 - 03:24:02