Welcome Guest ( Log In | Register )

> Releases Upload / Добавление релизов

Добавить релиз тут / Click here to add release
Рекомендованные обменники / Recommended file shares

> Soulhealer - Up From The Ashes (2018), Melodic Heavy Metal (D4)
post Sep 13 2018, 12:26:32
Post #1

Аннигилятор пивА
Group Icon
Group: V.I.P
Posts: 48,881
Releases: 14966
From: Koenigsberg - TILZIT
On Forums: 12 years 3 months
Thanks: 327621 time(s)
Russian Federation


(IMG:https://metalarea.org/images/audiocovers/2018_Sep/acov_tid310547_thumb.jpg)

*Artist: Soulhealer
*Album: Up From The Ashes
*Year: 2018
*Genre: Melodic Heavy Metal
*Country: Finland (IMG:https://metalarea.org/forum/style_images/flags/Finland.png)
*Format: mp3@CBR320kbps
*Size: 121MB

Tracklist:
01. Up From The Ashes
02. Through Fire And Ice
03. Fly Away
04. Sins Of My Father
05. Prepare For War
06. Pitch Black
07. The Final Judgement
08. Behind Closed Doors
09. Am I In Hell
10. Land Of The Free
******************************
Total playing time: 46:07

Extended info
Timo Immonen - Drums
Teemu Kuosmanen - Guitars, Vocals (backing)
Jori Kärki - Vocals
Lari Lämpsä - Bass
JiiPee - Guitars


Technical info
(IMG:https://metalarea.org/images/spectrogram/2018_Sep/c832b9d4cc9210b8b99ac56fd088545d.png)
Input File: 03 Fly Away.mp3
Channels : 2
Sample Rate : 44100
Precision : 16-bit
Duration : 00:03:42.29 = 9803033 samples = 16671.8 CDDA sectors
File Size : 10.3M
Bit Rate : 370k
Sample Encoding: MPEG audio (layer I, II or III)
Comments :
Title=Fly Away
Artist=SoulHealer
Album=Up from the Ashes
Tracknumber=3/10
Year=2018
Genre=Metal
Discnumber=1/1



Register


Thanks:
Go to the top of the page
  Insert nick Quick quote
+Quote Post
 
Start new topic
Replies (1 - 3)
post Sep 13 2018, 12:57:51
Post #2

Аннигилятор пивА
Group Icon
Group: V.I.P
Posts: 48,881
Releases: 14966
From: Koenigsberg - TILZIT
On Forums: 12 years 3 months
Thanks: 327621 time(s)
Russian Federation


MIRROR
Register


Go to the top of the page
  Insert nick Quick quote
+Quote Post
post Sep 14 2018, 18:23:06
Post #3

Литр
*
Group: Подсевший
Posts: 95
Releases: 0
On Forums: 11 years 5 months
Thanks: 74 time(s)
Russian Federation





Thanks:
(1) DenisKov,
Go to the top of the page
  Insert nick Quick quote
+Quote Post
post Sep 21 2018, 09:34:31
Post #4

Ъ
**************
Group: Металариец
Posts: 9,172
Releases: 9
On Forums: 9 years 8 months
Thanks: 1752 time(s)
Sweden


Вокалист скучный, музыка судя по превью неплохая.
Go to the top of the page
  Insert nick Quick quote
+Quote Post

Reply to this topicStart new topic
1 User(s) are reading this topic (1 Guests and 0 Anonymous Users)
0 Members:

 



- Lo-Fi Version Support form
Copyrights and abuse reports form
Time is now: 23rd September 2018 - 04:41:00