Welcome Guest ( Log In | Register )

> Releases Upload / Добавление релизов

Добавить релиз тут / Click here to add release
Рекомендованные обменники / Recommended file shares

> Daggers Edge - Daggers Edge [best of/compilation] (2010), Power Metal
post Sep 13 2018, 12:39:40
Post #1

Литр
*
Group: Подсевший
Posts: 63
Releases: 47
On Forums: 1 week 3 days
Thanks: 225 time(s)
Russian Federation


(IMG:https://metalarea.org/images/audiocovers/2018_Sep/acov_tid310548_thumb.jpg)

*Artist: Daggers Edge
*Album: Daggers Edge [best of/compilation]
*Year: 2010
*Genre: Power Metal
*Country: United States (IMG:https://metalarea.org/forum/style_images/flags/United%20States.png)
*Format: mp3@CBR320kbps
*Size: 85MB

Tracklist:
1. Three Wicked Kings 03:48
2. Deathwish 05:02
3. Sonic Thunder 04:10
4. Enticer 07:15
5. Cloak and Dagger 04:12
6. Twist of the Blade 05:05
7. Pagan Lord 03:55
8. Charge of the Heavy Bridge 03:53
******************************
Total playing time: 37:20

Technical info
(IMG:https://metalarea.org/images/spectrogram/2018_Sep/315fd0bc3c387bf33f692c5779c16ffa.png)
Input File: 01 Three Wicked Kings.mp3
Channels : 2
Sample Rate : 44100
Precision : 16-bit
Duration : 00:03:47.93 = 10051889 samples = 17095 CDDA sectors
File Size : 9.25M
Bit Rate : 325k
Sample Encoding: MPEG audio (layer I, II or III)
Comments :
Title=Three Wicked Kings
Artist=Daggers Edge
Album=Daggers Edge
Tracknumber=01
Year=1987
Genre=Power Metal



Register


Thanks:
Go to the top of the page
  Insert nick Quick quote
+Quote Post
 
Start new topic
Replies (1 - 1)
post Sep 14 2018, 10:52:58
Post #2

hearer & reader
**************
Group: Металариец
Posts: 6,867
Releases: 86
From: Moscow
On Forums: 11 years 2 weeks
Thanks: 6618 time(s)
Russian Federation



демки for fans only
Go to the top of the page
  Insert nick Quick quote
+Quote Post

Reply to this topicStart new topic
2 User(s) are reading this topic (2 Guests and 0 Anonymous Users)
0 Members:

 



- Lo-Fi Version Support form
Copyrights and abuse reports form
Time is now: 23rd September 2018 - 04:47:55