Welcome Guest ( Log In | Register )

> Releases Upload / Добавление релизов

Добавить релиз тут / Click here to add release
Рекомендованные обменники / Recommended file shares

> Lagras - Terminus Hic Deus [ep] (2018), Depressive Black Metal/Ambient
post Sep 13 2018, 12:40:49
Post #1

Serial Uploader
Group Icon
Group: V.I.P
Posts: 33,064
Releases: 31348
From: Lithuania
On Forums: 10 years 3 months
Thanks: 358622 time(s)
Lithuania


(IMG:https://metalarea.org/images/audiocovers/2018_Sep/acov_tid310549_thumb.jpg)

*Artist: Lagras
*Album: Terminus Hic Deus [ep]
*Year: 2018
*Genre: Depressive Black Metal/Ambient
*Country: Germany (IMG:https://metalarea.org/forum/style_images/flags/Germany.png)
*Format: mp3@CBR320kbps
*Size: 61MB

Tracklist:
01. Akt 1 00:57
02. Tuesday Night 05:09
03. Akt 2 00:54
04. Path To The River (Near The Forest) 18:04
05. Akt 3 02:49
******************************
Total playing time: 27:53


(IMG:https://metalarea.org/images/youtube.png)

Technical info
(IMG:https://metalarea.org/images/spectrogram/2018_Sep/ced7c55fe3f0e99e576e8d6cdcf23b7b.png)
Input File: 02. Tuesday Night.mp3
Channels : 2
Sample Rate : 44100
Precision : 16-bit
Duration : 00:05:09.10 = 13631178 samples = 23182.3 CDDA sectors
File Size : 12.4M
Bit Rate : 322k
Sample Encoding: MPEG audio (layer I, II or III)
Comments :
Title=Tuesday Night
Artist=Lagras
Album=Terminus Hic Deus
Tracknumber=2
Year=2018



Register


Go to the top of the page
  Insert nick Quick quote
+Quote Post
 
Start new topic
Replies (1 - 1)
post Sep 14 2018, 06:46:27
Post #2

MDM-Thrash Metal
**************
Group: Металариец
Posts: 7,061
Releases: 412
From: Одесса
On Forums: 11 years 1 month
Thanks: 13450 time(s)
Ukraine


Register
Go to the top of the page
  Insert nick Quick quote
+Quote Post

Reply to this topicStart new topic
1 User(s) are reading this topic (1 Guests and 0 Anonymous Users)
0 Members:

 



- Lo-Fi Version Support form
Copyrights and abuse reports form
Time is now: 23rd September 2018 - 03:11:47