Welcome Guest ( Log In | Register )

> Releases Upload / Добавление релизов

Добавить релиз тут / Click here to add release
Рекомендованные обменники / Recommended file shares

> Hitten - Twist Of Fate (2018), Heavy Metal
post Sep 13 2018, 12:45:57
Post #1

Правь статус, ####!111
**************
Group: Металариец
Posts: 14,306
Releases: 9914
From: Г.Харьков
On Forums: 6 years 4 months
Thanks: 162716 time(s)
Unknown


(IMG:https://metalarea.org/images/audiocovers/2018_Sep/acov_tid310550_thumb.jpg)

*Artist: Hitten
*Album: Twist Of Fate
*Year: 2018
*Genre: Heavy Metal
*Country: Spain (IMG:https://metalarea.org/forum/style_images/flags/Spain.png)
*Format: mp3@CBR320kbps
*Size: 107MB

Tracklist:
1. Take It All 04:27
2. Final Warning 04:25
3. Twist of Fate 04:21
4. Flight to Freedom 04:33
5. Svccvbvs 01:11
6. Evil Within 05:28
7. On the Run 04:34
8. In the Heat of the Night 04:15
9. Rockin' Out the City 04:42
10. Heroes 06:14
******************************
Total playing time: 44:10



Extended info
Mr. C - Bass
Juancar - Drums
Johnny Lorca - Guitars
Dani - Guitars
Alex Panza - Vocals


Technical info
(IMG:https://metalarea.org/images/spectrogram/2018_Sep/e57c9970b976f0218087a3f04a333861.png)
Input File: 02 Final Warning.mp3
Channels : 2
Sample Rate : 44100
Precision : 16-bit
Duration : 00:04:25.24 = 11696864 samples = 19892.6 CDDA sectors
File Size : 11.2M
Bit Rate : 337k
Sample Encoding: MPEG audio (layer I, II or III)
Comments :
Title=Final Warning
Artist=Hitten
Album=Twist of Fate
Tracknumber=2/10
Year=2018
Genre=Rock
Discnumber=1/1



Register


Thanks:
Go to the top of the page
  Insert nick Quick quote
+Quote Post
 
Start new topic
Replies (1 - 1)
post Sep 13 2018, 13:04:03
Post #2

Правь статус, ####!111
**************
Group: Металариец
Posts: 14,306
Releases: 9914
From: Г.Харьков
On Forums: 6 years 4 months
Thanks: 162716 time(s)
Unknown


Cloud Mail 320
Register


Thanks:
Go to the top of the page
  Insert nick Quick quote
+Quote Post

Reply to this topicStart new topic
2 User(s) are reading this topic (2 Guests and 0 Anonymous Users)
0 Members:

 



- Lo-Fi Version Support form
Copyrights and abuse reports form
Time is now: 23rd September 2018 - 04:17:06