Welcome Guest ( Log In | Register )

> Cultural Warfare - Warmageddon (2018), Thrash Metal
post Sep 13 2018, 13:12:18
Post #1

Правь статус, ####!111
**************
Group: Металариец
Posts: 14,913
Releases: 10236
From: Г.Харьков
On Forums: 6 years 6 months
Thanks: 168760 time(s)
Unknown


(IMG:https://metalarea.org/images/audiocovers/2018_Sep/acov_tid310551_thumb.jpg)

*Artist: Cultural Warfare
*Album: Warmageddon
*Year: 2018
*Genre: Thrash Metal
*Country: United States (IMG:https://metalarea.org/forum/style_images/flags/United%20States.png)
*Format: mp3@CBR320kbps
*Size: 135MB

Tracklist:
1. Warmageddon 05:31
2. Divided We Crawl 05:03
3. G.O.D. 04:44
4. Eyes of the Land 05:11
5. Two Spirits 06:44
6. Politikill 05:12
7. Scars Left Cold 04:16
8. Punished 04:56
9. Witches Prayer 04:28
10. Shadow Priest 03:56
11. Blood Machines 04:56
12. New Beginnings 01:31
******************************
Total playing time: 56:28




Extended info
Jacques Serrano - Vocals
Billy Garoutte - Guitars
Pete Aguilar - Bass
Kevin Doughty - Guitars
Bones Padilla - Drums



Technical info
(IMG:https://metalarea.org/images/spectrogram/2018_Sep/172a12c09dabf08e0f1765d76969deaa.png)
Input File: 02 Divided We Crawl.mp3
Channels : 2
Sample Rate : 44100
Precision : 16-bit
Duration : 00:04:50.63 = 12816695 samples = 21797.1 CDDA sectors
File Size : 12.6M
Bit Rate : 346k
Sample Encoding: MPEG audio (layer I, II or III)
Comments :
Title=Divided We Crawl
Artist=Cultural Warfare
Album=Warmageddon
Tracknumber=2/12
Year=2018
Genre=Rock
Discnumber=1/1



Register


Go to the top of the page
  Insert nick Quick quote
+Quote Post
 
Start new topic
Replies (1 - 4)
post Sep 13 2018, 13:25:08
Post #2

Правь статус, ####!111
**************
Group: Металариец
Posts: 14,913
Releases: 10236
From: Г.Харьков
On Forums: 6 years 6 months
Thanks: 168760 time(s)
Unknown


Cloud Mail 320
Register


Thanks:
(1) Diflock,
Go to the top of the page
  Insert nick Quick quote
+Quote Post
post Sep 15 2018, 16:59:16
Post #3

Мегаманьяк
***********
Group: Металариец
Posts: 1,588
Releases: 0
From: Dnipro
On Forums: 10 years 4 months
Thanks: 419 time(s)
Ukraine


Достойный альбом


Thanks:
Go to the top of the page
  Insert nick Quick quote
+Quote Post
post Sep 19 2018, 15:11:16
Post #4

South Of Heaven /адепт ВУДУ
**************
Group: Металариец
Posts: 13,162
Releases: 7
From: Санкт-Петербург
On Forums: 8 years 7 months
Thanks: 4800 time(s)
Russian Federation


Ничего так, Heathen слегка напомнили.
Go to the top of the page
  Insert nick Quick quote
+Quote Post
post Sep 28 2018, 09:06:03
Post #5

Три Литра
***
Group: Завсегдатай
Posts: 295
Releases: 61
From: saratov
On Forums: 9 years 2 months
Thanks: 1476 time(s)
Russian Federation


Зачетный трэшняк,плюсую!
Go to the top of the page
  Insert nick Quick quote
+Quote Post

Reply to this topicStart new topic
1 User(s) are reading this topic (1 Guests and 0 Anonymous Users)
0 Members:

 



- Lo-Fi Version Support form
Copyrights and abuse reports form
Time is now: 14th November 2018 - 14:58:52