Welcome Guest ( Log In | Register )

> Releases Upload / Добавление релизов

Добавить релиз тут / Click here to add release
Рекомендованные обменники / Recommended file shares

> Hell's Guardian - As Above So Below (2018), Epic/Melodic Death Metal
post Sep 13 2018, 12:59:18
Post #1

Аннигилятор пивА
Group Icon
Group: V.I.P
Posts: 48,881
Releases: 14965
From: Koenigsberg - TILZIT
On Forums: 12 years 3 months
Thanks: 327599 time(s)
Russian Federation


(IMG:https://metalarea.org/images/audiocovers/2018_Sep/acov_tid310552_thumb.jpg)

*Artist: Hell's Guardian
*Album: As Above So Below
*Year: 2018
*Genre: Epic/Melodic Death Metal
*Country: Italy (IMG:https://metalarea.org/forum/style_images/flags/Italy.png)
*Format: mp3@CBR320kbps
*Size: 128MB

Tracklist:
01. Over the Line
02. Crystal Door
03. As Above So Below
04. Blood Must Have Blood
05. Waiting…for Nothing
06. 90 Days
07. Lake of Blood
08. Jester Smile
09. My Guide My Hunger
10. I Rise Up
11. Colorful Dreams
******************************
Total playing time: 51:10




Extended info
LINE UP:
Cesare Damiolini - Growl/Clean Vocals, Guitars
Freddie Formis - Guitars
Claudio Cor - Bass Guitar
Dylan Formis - Drums

GUEST MUSICIANS:
Marco Pastorino (Temperance, Light & Shade) - Vocals on "My guide my hunger" and backing vocals
Adrienne Cowan (Seven Spires, Light & Shade) - Vocals on "My guide my hunger"
Ark Nattlig Ulv (Ulvedharr) - Vocals on "Colorful Dreams"
Fabrizio Romani - Guitar solo on "Crystal Door"
Mirela Isaincu - Acoustic Violin on "Crystal Door" and "Jester Smile"


Technical info
(IMG:https://metalarea.org/images/spectrogram/2018_Sep/36faf361035f2a8370c97007b2297daa.png)
Input File: 02 Crystal Door.mp3
Channels : 2
Sample Rate : 44100
Precision : 16-bit
Duration : 00:05:27.07 = 14423831 samples = 24530.3 CDDA sectors
File Size : 14.1M
Bit Rate : 346k
Sample Encoding: MPEG audio (layer I, II or III)
Comments :
Title=Crystal Door
Artist=Hell's Guardian
Album=As Above so Below
Tracknumber=2/11
Year=2018
Genre=Alternative
Discnumber=1/1



Register


Go to the top of the page
  Insert nick Quick quote
+Quote Post
 
Start new topic
Replies (1 - 3)
post Sep 13 2018, 13:13:05
Post #2

Аннигилятор пивА
Group Icon
Group: V.I.P
Posts: 48,881
Releases: 14965
From: Koenigsberg - TILZIT
On Forums: 12 years 3 months
Thanks: 327599 time(s)
Russian Federation


MIRROR
Register




Go to the top of the page
  Insert nick Quick quote
+Quote Post
post Sep 15 2018, 06:56:55
Post #3

Три Литра
***
Group: Завсегдатай
Posts: 276
Releases: 0
From: Липецк
On Forums: 9 years 2 months
Thanks: 26 time(s)
Russian Federation


Удачно зашёл ))
Go to the top of the page
  Insert nick Quick quote
+Quote Post
post Sep 21 2018, 10:19:42
Post #4

Ъ
**************
Group: Металариец
Posts: 9,172
Releases: 9
On Forums: 9 years 8 months
Thanks: 1752 time(s)
Sweden


На раз послушать норм, местами правда скатываются, но в общем оставляют положительное впечатление.
Go to the top of the page
  Insert nick Quick quote
+Quote Post

Reply to this topicStart new topic
1 User(s) are reading this topic (1 Guests and 0 Anonymous Users)
0 Members:

 



- Lo-Fi Version Support form
Copyrights and abuse reports form
Time is now: 23rd September 2018 - 03:21:08