Welcome Guest ( Log In | Register )

> Releases Upload / Добавление релизов

Добавить релиз тут / Click here to add release
Рекомендованные обменники / Recommended file shares

> Ethernity - The Human Race Extinction (2018), Melodic Progressive/Power Metal
post Sep 13 2018, 13:24:06
Post #1

Аннигилятор пивА
Group Icon
Group: V.I.P
Posts: 48,881
Releases: 14966
From: Koenigsberg - TILZIT
On Forums: 12 years 3 months
Thanks: 327600 time(s)
Russian Federation


(IMG:https://metalarea.org/images/audiocovers/2018_Sep/acov_tid310553_thumb.jpg)

*Artist: Ethernity
*Album: The Human Race Extinction
*Year: 2018
*Genre: Melodic Progressive/Power Metal
*Country: Belgium (IMG:https://metalarea.org/forum/style_images/flags/Belgium.png)
*Format: mp3@CBR320kbps
*Size: 170MB

Tracklist:
1. Initialization 01:08
2. The Human Race Extinction 06:24
3. Mechanical Life 06:01
4. Grey Skies 06:28
5. Beyond Dread 05:36
6. Artificial Souls 04:37
7. Redefined 06:02
8. Rise of Droids 06:35
9. Mark of the Enemy 02:35
10. The Prototype 05:07
11. Not the End 05:07
12. Warmth of Hope 04:19
13. Chaos Architect 05:19
14. Indestructible 05:29
******************************
Total playing time: 1:10:47



Extended info
François Spreutels - Bass (2000-present) See also: Sapphire
Nicolas Spreutels - Drums (2000-present) See also: ex-Magic Kingdom
Julien Spreutels - Keyboards (2000-present) See also: Noveria, Sapphire, ex-Magic Kingdom
Thomas Henry - Guitars (rhythm) (2001-present)
Francesco Mattei - Guitars (lead) (2017-present) See also: Noveria




Technical info
(IMG:https://metalarea.org/images/spectrogram/2018_Sep/e2b1f268c745be02a4f7cd86ef60e72a.png)
Input File: 03 Mechanical Life.mp3
Channels : 2
Sample Rate : 44100
Precision : 16-bit
Duration : 00:06:01.50 = 15942238 samples = 27112.6 CDDA sectors
File Size : 15.0M
Bit Rate : 332k
Sample Encoding: MPEG audio (layer I, II or III)
Comments :
Title=Mechanical Life
Artist=Ethernity
Album=The Human Race Extinction
Tracknumber=3/14
Year=2018
Genre=Rock
Discnumber=1/1



Register


Thanks:
Go to the top of the page
  Insert nick Quick quote
+Quote Post
 
Start new topic
Replies (1 - 1)
post Sep 13 2018, 14:38:33
Post #2

Аннигилятор пивА
Group Icon
Group: V.I.P
Posts: 48,881
Releases: 14966
From: Koenigsberg - TILZIT
On Forums: 12 years 3 months
Thanks: 327600 time(s)
Russian Federation


MIRROR
Register


Thanks:
Go to the top of the page
  Insert nick Quick quote
+Quote Post

Reply to this topicStart new topic
2 User(s) are reading this topic (2 Guests and 0 Anonymous Users)
0 Members:

 



- Lo-Fi Version Support form
Copyrights and abuse reports form
Time is now: 23rd September 2018 - 03:28:28