Welcome Guest ( Log In | Register )

 
Reply to this topicStart new topic
> Tonic Breed - Install Memory [ep] (2018), Thrash/Groove Metal (D5)
post Sep 13 2018, 14:17:16
Post #1

Правь статус, ####!111
**************
Group: Металариец
Posts: 14,913
Releases: 10236
From: Г.Харьков
On Forums: 6 years 6 months
Thanks: 168761 time(s)
Unknown


(IMG:https://metalarea.org/images/audiocovers/2018_Sep/acov_tid310555_thumb.jpg)

*Artist: Tonic Breed
*Album: Install Memory [ep]
*Year: 2018
*Genre: Thrash/Groove Metal
*Country: Norway (IMG:https://metalarea.org/forum/style_images/flags/Norway.png)
*Format: mp3@CBR320kbps
*Size: 92MB

Tracklist:
01. Crypto Knight
02. Install Memory
03. Don't Panic!
04. Overkill
05. Mummy Dust
06. Bad Company - Live in Oslo, 5 Jan 2018
07. Blackened Mind - Live in Trondheim, 14 Oct 2017
******************************
Total playing time: 38:07



Extended info
Rudi Golimo Bass (2008-present)
Patrik Svendsen Guitars, Vocals (2008-present)
Jørgen Abrahamsen Guitars (lead) (2015-present)


Technical info
(IMG:https://metalarea.org/images/spectrogram/2018_Sep/d7bc609795b029d02ce338de8c44df59.png)
Input File: 03 Don\'t Panic!.mp3
Channels : 2
Sample Rate : 44100
Precision : 16-bit
Duration : 00:06:39.38 = 17612746 samples = 29953.6 CDDA sectors
File Size : 16.7M
Bit Rate : 335k
Sample Encoding: MPEG audio (layer I, II or III)
Comments :
Title=Don't Panic!
Artist=Tonic Breed
Album=Install Memory
Tracknumber=3/7
Year=2018
Genre=Metal
Discnumber=1/1



Register


Go to the top of the page
  Insert nick Quick quote
+Quote Post

Reply to this topicStart new topic
1 User(s) are reading this topic (1 Guests and 0 Anonymous Users)
0 Members:

 



- Lo-Fi Version Support form
Copyrights and abuse reports form
Time is now: 14th November 2018 - 15:20:56