Welcome Guest ( Log In | Register )

> Releases Upload / Добавление релизов

Добавить релиз тут / Click here to add release
Рекомендованные обменники / Recommended file shares

> Stonedirt - Backlash-Zone (2018), Thrash/Groove Metal (D5)
post Sep 13 2018, 14:34:21
Post #1

Правь статус, ####!111
**************
Group: Металариец
Posts: 14,305
Releases: 9914
From: Г.Харьков
On Forums: 6 years 4 months
Thanks: 162716 time(s)
Unknown


(IMG:https://metalarea.org/images/audiocovers/2018_Sep/acov_tid310557_thumb.jpg)

*Artist: Stonedirt
*Album: Backlash-Zone
*Year: 2018
*Genre: Thrash/Groove Metal
*Country: Hungary (IMG:https://metalarea.org/forum/style_images/flags/Hungary.png)
*Format: mp3@CBR320kbps
*Size: 106MB

Tracklist:
01. Steadfast
02. In Metal We Trust
03. Rebel Revolution
04. Unbreakable
05. Beyond Control
06. Worms of Despair
07. Cosy Coffin Rot
08. Desolation Hammer
09. Ambivalent Recreated Humanization
******************************
Total playing time: 44:46



Extended info
Szilárd Kamarás Bass
See also: ex-Riuros, ex-Judas Best
Boldizsár Ifju Drums
See also: ex-Riuros
Balázs Kemencei Guitars
See also: Wall of Sleep, ex-Riuros, Judas Best
Endre Tarjányi Vocals
See also: Manikin Faint


Technical info
(IMG:https://metalarea.org/images/spectrogram/2018_Sep/326eab1b56eb3e34797cf095165c0545.png)
Input File: 02 In Metal We Trust.mp3
Channels : 2
Sample Rate : 44100
Precision : 16-bit
Duration : 00:05:00.06 = 13232602 samples = 22504.4 CDDA sectors
File Size : 12.5M
Bit Rate : 332k
Sample Encoding: MPEG audio (layer I, II or III)
Comments :
Title=In Metal We Trust
Artist=Stonedirt
Album=Backlash-Zone
Tracknumber=2/9
Year=2018
Genre=Rock
Discnumber=1/1



Register


Go to the top of the page
  Insert nick Quick quote
+Quote Post
 
Start new topic
Replies (1 - 1)
post Sep 13 2018, 17:03:56
Post #2

Правь статус, ####!111
**************
Group: Металариец
Posts: 14,305
Releases: 9914
From: Г.Харьков
On Forums: 6 years 4 months
Thanks: 162716 time(s)
Unknown


Cloud Mail 320
Register


Thanks:
Go to the top of the page
  Insert nick Quick quote
+Quote Post

Reply to this topicStart new topic
1 User(s) are reading this topic (1 Guests and 0 Anonymous Users)
0 Members:

 



- Lo-Fi Version Support form
Copyrights and abuse reports form
Time is now: 23rd September 2018 - 03:12:12