Welcome Guest ( Log In | Register )

> Releases Upload / Добавление релизов

Добавить релиз тут / Click here to add release
Рекомендованные обменники / Recommended file shares

> Tomb Of Finland - Frozen Beneath (2018), Melodic Doom/Death Metal
post Sep 13 2018, 15:03:41
Post #1

Правь статус, ####!111
**************
Group: Металариец
Posts: 14,306
Releases: 9914
From: Г.Харьков
On Forums: 6 years 4 months
Thanks: 162716 time(s)
Unknown


(IMG:https://metalarea.org/images/audiocovers/2018_Sep/acov_tid310560_thumb.jpg)

*Artist: Tomb Of Finland
*Album: Frozen Beneath
*Year: 2018
*Genre: Melodic Doom/Death Metal
*Country: Finland (IMG:https://metalarea.org/forum/style_images/flags/Finland.png)
*Format: mp3@CBR320kbps
*Size: 94MB

Tracklist:
1. Dead Again
2. From Here To Eternity
3. Decaying In Silence
4. Beneath The Frozen Depravity
5. Funeral Pyre
6. Left To Die
7. Mourning Chant
8. Scattering Ashes
9. Into The Abyss
******************************
Total playing time: 45:09



Extended info
Oskari Hakala-Rahko Bass
See also: ex-Rainroom, ex-Slugstain
Janne Lukki Drums
See also: Sense of Fall
Mikko Hannuksela Guitars
See also: ex-Cartilage, ex-Ghost Guard, ex-Vomiturition, ex-Deathbound (live), ex-Coughdust, ex-Enochian Crescent
Olli Saakeli Suvanto Vocals
See also: Encranius, End of Aeon, Kaunis Kuolematon, ex-Dyrnath, ex-Darkos
Jasse von Hast Guitars (2009-present)
See also: ex-Wolfheart, ex-Auroral, ex-Charon, ex-Wihastan


Technical info
(IMG:https://metalarea.org/images/spectrogram/2018_Sep/09acb885672d6b32b64b73fdf58f765b.png)
Input File: 02. From Eternity into Dust.mp3
Channels : 2
Sample Rate : 44100
Precision : 16-bit
Duration : 00:04:39.84 = 12341032 samples = 20988.1 CDDA sectors
File Size : 11.2M
Bit Rate : 320k
Sample Encoding: MPEG audio (layer I, II or III)
Comments :
Title=From Eternity into Dust
Artist=Tomb Of Finland
Album=Frozen Beneath
Tracknumber=02
Year=2018
Discnumber=1



Register


Go to the top of the page
  Insert nick Quick quote
+Quote Post
 
Start new topic
Replies (1 - 4)
post Sep 13 2018, 16:54:16
Post #2

Правь статус, ####!111
**************
Group: Металариец
Posts: 14,306
Releases: 9914
From: Г.Харьков
On Forums: 6 years 4 months
Thanks: 162716 time(s)
Unknown


Cloud Mail 320
Register


Go to the top of the page
  Insert nick Quick quote
+Quote Post
post Sep 14 2018, 22:16:15
Post #3

ЗаDOOMчивый
***********
Group: Металариец
Posts: 1,677
Releases: 27
From: Cradlовская обл., г. Нижний Gorgoroth, р-н Doom-о-Deathово
On Forums: 9 years 9 months
Thanks: 1158 time(s)
Russian Federation


Оперативно! Спасибо! (IMG:style_emoticons/default/9.gif)


Thanks:
Go to the top of the page
  Insert nick Quick quote
+Quote Post
post Sep 15 2018, 17:01:50
Post #4

Маньяк
**********
Group: Металариец
Posts: 1,318
Releases: 0
From: Dnipro
On Forums: 10 years 2 months
Thanks: 366 time(s)
Ukraine


Судя по клипу, просто бомба.


Thanks:
Go to the top of the page
  Insert nick Quick quote
+Quote Post
post Sep 15 2018, 18:26:10
Post #5

ЗаDOOMчивый
***********
Group: Металариец
Posts: 1,677
Releases: 27
From: Cradlовская обл., г. Нижний Gorgoroth, р-н Doom-о-Deathово
On Forums: 9 years 9 months
Thanks: 1158 time(s)
Russian Federation


ЦИТАТА(isvili @ Sep 15 2018, 18:01:50) *
Судя по клипу, просто бомба.

Ну так тут и музыканты со стажем из коллективов не слабых.))
Альбомец хорошо пошел! (IMG:style_emoticons/default/9.gif)


Thanks:
Go to the top of the page
  Insert nick Quick quote
+Quote Post

Reply to this topicStart new topic
1 User(s) are reading this topic (1 Guests and 0 Anonymous Users)
0 Members:

 



- Lo-Fi Version Support form
Copyrights and abuse reports form
Time is now: 23rd September 2018 - 03:30:41