Welcome Guest ( Log In | Register )

> Releases Upload / Добавление релизов

Добавить релиз тут / Click here to add release
Рекомендованные обменники / Recommended file shares

> Burial Hordes - Θανατος Αιωνιος (The Termination Thesis) (2018), Black/Death Metal
post Sep 13 2018, 15:13:06
Post #1

Аннигилятор пивА
Group Icon
Group: V.I.P
Posts: 48,881
Releases: 14966
From: Koenigsberg - TILZIT
On Forums: 12 years 3 months
Thanks: 327622 time(s)
Russian Federation


(IMG:https://metalarea.org/images/audiocovers/2018_Sep/acov_tid310561_thumb.jpg)

*Artist: Burial Hordes
*Album: Θανατος Αιωνιος (The Termination Thesis)
*Year: 2018
*Genre: Black/Death Metal
*Country: Greece (IMG:https://metalarea.org/forum/style_images/flags/Greece.png)
*Format: mp3@CBR320kbps
*Size: 99MB

Tracklist:
1. Human Condition (Isolation-Meaninglessness-Mortality) 05:16
2. Thrownness and Fallenness of Being 05:06
3. Lurk in the Shadows 05:14
4. Erkenntnis 05:49
5. Death Is Omnipotent 04:48
6. From Synthesis to Aposynthesis 16:50
******************************
Total playing time: 43:03




Extended info
Θανατος αιωνιος - The Termination Thesis

F.V. - Drums See also: Chainsaw, Heretic Cult Redeemer, Necrochakal, Necrovorous, Pile of Excrements, Sacral Rage, Acrimonious (live), ex-Coprovomit, ex-Necrosis, ex-Overcast, ex-Sigillum Maleficae, ex-Stagnate, ex-Straighthate, ex-Cthonic Aura, ex-More of Myself to Kill, ex-Iniquity, Atomic Breath, ΠΑΡΟΞΥΣΜΟΣ, Χαοτικό Τέλος (Chaotic End), Χωρίς Οίκτο, ex-Convixion, ex-Embrace of Thorns, ex-Obduktion, ex-Resurgency, ex-Saboter, ex-Mentally Defiled, ex-Revenge, ex-Dead Beat
K.T. - Guitars, Bass See also: Dead Congregation, ΠΑΡΟΞΥΣΜΟΣ, ex-Enshadowed
D.D. - Guitars, Bass (2001-present) See also: Enshadowed, Respawn the Plague, Vomit Church, Skiltron N.V. 101, ex-Hellmight, ex-Mournful Night, ex-Seventh Xul, ex-Suicidal Forms Elite, ex-Merciless Crucifixion
T.D. Vocals (2004-present) See also: ex-Ravencult


Technical info
(IMG:https://metalarea.org/images/spectrogram/2018_Sep/113c977abbbf22cedc651fa5a40647cf.png)
Input File: 01 Human Condition.mp3
Channels : 2
Sample Rate : 44100
Precision : 16-bit
Duration : 00:05:13.10 = 13807622 samples = 23482.4 CDDA sectors
File Size : 12.8M
Bit Rate : 327k
Sample Encoding: MPEG audio (layer I, II or III)
Comments :
Title=Human Condition
Artist=Burial Hordes
Album=The Termination Thesis
Tracknumber=1/6
Year=2018
Genre=Metal
Discnumber=1/1



Register


Go to the top of the page
  Insert nick Quick quote
+Quote Post
 
Start new topic
Replies (1 - 9)
post Sep 14 2018, 06:28:03
Post #2

кручу наждак
**************
Group: Металариец
Posts: 3,394
Releases: 89
From: Самара
On Forums: 8 years 4 months
Thanks: 2536 time(s)
Russian Federation


Ждал (IMG:style_emoticons/default/pray.gif)


Thanks:
(1) Leshiy666,
Go to the top of the page
  Insert nick Quick quote
+Quote Post
post Sep 14 2018, 06:47:03
Post #3

Аннигилятор пивА
Group Icon
Group: V.I.P
Posts: 48,881
Releases: 14966
From: Koenigsberg - TILZIT
On Forums: 12 years 3 months
Thanks: 327622 time(s)
Russian Federation


MIRROR
Register


Go to the top of the page
  Insert nick Quick quote
+Quote Post
post Sep 14 2018, 07:14:43
Post #4

Crush! Kill! Destroy!
**************
Group: Металариец
Posts: 4,542
Releases: 15
From: Kaliningrad
On Forums: 10 years 10 months
Thanks: 4246 time(s)
Russian Federation


По первому прослушиванию - очень симпатишный альбом получился.


Thanks:
(1) judaz,
Go to the top of the page
  Insert nick Quick quote
+Quote Post
post Sep 14 2018, 07:51:20
Post #5

Detective Godzilla
**************
Group: Металариец
Posts: 2,566
Releases: 186
On Forums: 7 years 7 months
Thanks: 5509 time(s)
Russian Federation


Folter Records вчера дропнули просто две бомбы (как минимум то, что я успел послушать). Первая — итальянцы Kult, а вот вторая — данный релиз. Очень редко (читай, что почти никогда) не был разочарован в продукции лейбла и эти музыканты закрепили вчера это чувство.


Thanks:
Go to the top of the page
  Insert nick Quick quote
+Quote Post
post Sep 14 2018, 10:51:59
Post #6

кручу наждак
**************
Group: Металариец
Posts: 3,394
Releases: 89
From: Самара
On Forums: 8 years 4 months
Thanks: 2536 time(s)
Russian Federation


Альбом вкатил просто жесточайше.


Thanks:
(1) Leshiy666,
Go to the top of the page
  Insert nick Quick quote
+Quote Post
post Sep 14 2018, 15:17:02
Post #7

Crush! Kill! Destroy!
**************
Group: Металариец
Posts: 4,542
Releases: 15
From: Kaliningrad
On Forums: 10 years 10 months
Thanks: 4246 time(s)
Russian Federation


QUOTE(Daale @ Sep 14 2018, 08:51:20) *
Folter Records вчера дропнули просто две бомбы (как минимум то, что я успел послушать). Первая — итальянцы Kult, а вот вторая — данный релиз. Очень редко (читай, что почти никогда) не был разочарован в продукции лейбла и эти музыканты закрепили вчера это чувство.


И где можно этот Kult послушать?
Go to the top of the page
  Insert nick Quick quote
+Quote Post
post Sep 14 2018, 16:32:45
Post #8

стазис эпидерсис
***********
Group: Металариец
Posts: 1,953
Releases: 0
On Forums: 2 years 7 months
Thanks: 1206 time(s)
Unknown


ЦИТАТА(Dmitry1977 @ 14th September 2018 - 19:17:02) *
И где можно этот Kult послушать?

Register


Thanks:
Go to the top of the page
  Insert nick Quick quote
+Quote Post
post Sep 17 2018, 11:35:21
Post #9

Necromancer
Group Icon
Group: Curation team
Posts: 10,713
Releases: 271
From: Зеленоград
On Forums: 11 years 11 months
Thanks: 8624 time(s)
Russian Federation


Грозная музычка. (IMG:style_emoticons/default/25.gif)
Go to the top of the page
  Insert nick Quick quote
+Quote Post
post Sep 18 2018, 12:33:44
Post #10

Три Литра
***
Group: Завсегдатай
Posts: 257
Releases: 0
On Forums: 10 months 4 weeks
Thanks: 97 time(s)
Unknown


Понравилось по первому прослушиванию и по второму тоже. А трек From Synthesis to Aposynthesis я уже раза три подряд прогнал и он нравится мне все больше и больше (IMG:style_emoticons/default/headcrab.png)
Go to the top of the page
  Insert nick Quick quote
+Quote Post

Reply to this topicStart new topic
1 User(s) are reading this topic (1 Guests and 0 Anonymous Users)
0 Members:

 



- Lo-Fi Version Support form
Copyrights and abuse reports form
Time is now: 23rd September 2018 - 04:46:28