Welcome Guest ( Log In | Register )

> Releases Upload / Добавление релизов

Добавить релиз тут / Click here to add release
Рекомендованные обменники / Recommended file shares

> Höwler - Fallen But Not Forgotten (2018), Heavy/Thrash Metal
post Sep 13 2018, 15:18:21
Post #1

Правь статус, ####!111
**************
Group: Металариец
Posts: 14,306
Releases: 9914
From: Г.Харьков
On Forums: 6 years 4 months
Thanks: 162716 time(s)
Unknown


(IMG:https://metalarea.org/images/audiocovers/2018_Sep/acov_tid310562_thumb.jpg)

*Artist: Höwler
*Album: Fallen But Not Forgotten
*Year: 2018
*Genre: Heavy/Thrash Metal
*Country: Costa Rica (IMG:https://metalarea.org/forum/style_images/flags/Costa%20Rica.png)
*Format: mp3@CBR320kbps
*Size: 114MB

Tracklist:
1. Fallen But Not Forgotten
2. Power Source
3. The Screenplay Of Our Lives
4. Khan-Abyss
5. Everyone Wants To Go To Heaven... But Nobody Wants To Die
6. Inhaler
7. Deadly Acid
******************************
Total playing time: 49:45




Extended info
José Mora Bass (2008-present)
David Mora Guitars (rhythm) (2008-present)
Carlos Díaz Vocals (2009-present)
Josué Pazos Drums (2013-present)
See also: Suppressor (live), Drakmen
Renan Obando Guitars (lead) (2013-present)


Technical info
(IMG:https://metalarea.org/images/spectrogram/2018_Sep/bdb8c3bcc1ef5643841d1c4bdf9da31a.png)
Input File: 02 Power Source.mp3
Channels : 2
Sample Rate : 44100
Precision : 16-bit
Duration : 00:04:04.68 = 10790212 samples = 18350.7 CDDA sectors
File Size : 9.80M
Bit Rate : 320k
Sample Encoding: MPEG audio (layer I, II or III)
Comments :
Title=Power Source
Artist=Höwler
Album=Fallen But Not Forgotten
Tracknumber=02/07
Year=2018
Discnumber=1/1



Register


Go to the top of the page
  Insert nick Quick quote
+Quote Post
 
Start new topic
Replies (1 - 1)
post Sep 13 2018, 16:55:47
Post #2

Правь статус, ####!111
**************
Group: Металариец
Posts: 14,306
Releases: 9914
From: Г.Харьков
On Forums: 6 years 4 months
Thanks: 162716 time(s)
Unknown


Cloud Mail 320
Register


Thanks:
(1) Diflock,
Go to the top of the page
  Insert nick Quick quote
+Quote Post

Reply to this topicStart new topic
1 User(s) are reading this topic (1 Guests and 0 Anonymous Users)
0 Members:

 



- Lo-Fi Version Support form
Copyrights and abuse reports form
Time is now: 23rd September 2018 - 03:44:58