Welcome Guest ( Log In | Register )

> Releases Upload / Добавление релизов

Добавить релиз тут / Click here to add release
Рекомендованные обменники / Recommended file shares

> Pantheist - Seeking Infinity (2018), Funeral Doom Metal (D)
post Sep 13 2018, 15:45:18
Post #1

Аннигилятор пивА
Group Icon
Group: V.I.P
Posts: 48,881
Releases: 14966
From: Koenigsberg - TILZIT
On Forums: 12 years 3 months
Thanks: 327604 time(s)
Russian Federation


(IMG:https://metalarea.org/images/audiocovers/2018_Sep/acov_tid310565_thumb.jpg)

*Artist: Pantheist
*Album: Seeking Infinity
*Year: 2018
*Genre: Funeral Doom Metal
*Country: Belgium (IMG:https://metalarea.org/forum/style_images/flags/Belgium.png)
*Format: mp3@CBR320kbps
*Size: 145MB

Tracklist:
1. Eye of the Universe 01:59
2. Control and Fire 11:45
3. 500 B.C. to 30 A.D.- The Enlightened Ones 13:13
4. 1453: an Empire Crumbles 06:04
5. Emergence 12:17
6. Seeking Infinity, Reaching Eternity 14:39
******************************
Total playing time: 59:57



Extended info
Recorded, mixed and engineered by drummer Daniel Neagoe (Shape of Despair, Clouds)

Kostas Panagiotou - Vocals, Keyboards (2000-present) See also: Kostas Panagiotou, Landskap, Towards Atlantis Lights, Wastes, ex-Wijlen Wij, ex-Aphonic Threnody, ex-Bellator, ex-Clouds, ex-Crippled Black Phoenix, ex-Ereipia
Aleksej Obradović - Bass (2011-present) See also: ex-De Profundis
Frank Allain - Guitars (2015-present) See also: De Arma, Demagogue, Fellwarden, Fen, Virophage, Kaon, Lost Legion, ex-Antigone, ex-The Clan of Steel, ex-Skaldic Curse
Dan - Drums (2016-present) See also: Bereft of Light, Clouds, Colosus, Deos, Eye of Solitude, God Eat God, Mistralth, Obseqvies, Shape of Despair, Vaer, ex-My Shadow, Tableau Mort, ex-Ennui, ex-Fogland, ex-Gothic, ex-Imber Luminis, ex-Sidious, ex-Tiarra, ex-Unfathomable Ruination, ex-L.O.S.T., ex-Amatris


Technical info
(IMG:https://metalarea.org/images/spectrogram/2018_Sep/96f49d53f5fe25866709f62312f7549f.png)
Input File: 04. 1453 An Empire Crumbles.mp3
Channels : 2
Sample Rate : 44100
Precision : 16-bit
Duration : 00:06:04.59 = 16078199 samples = 27343.9 CDDA sectors
File Size : 14.6M
Bit Rate : 320k
Sample Encoding: MPEG audio (layer I, II or III)
Comments :
Title=1453: An Empire Crumbles
Artist=Pantheist
Album=Seeking Infinity
Tracknumber=04/06
Year=2018
Discnumber=1/1



Register


Go to the top of the page
  Insert nick Quick quote
+Quote Post
 
Start new topic
Replies (1 - 9)
post Sep 14 2018, 04:17:19
Post #2

Group: Подсевший
Posts: 12
Releases: 0
From: г. Копейск
On Forums: 12 years 1 week
Thanks: 0 time(s)
Russian Federation


Вот жеж нифига себе
Go to the top of the page
  Insert nick Quick quote
+Quote Post
post Sep 14 2018, 06:44:53
Post #3

Аннигилятор пивА
Group Icon
Group: V.I.P
Posts: 48,881
Releases: 14966
From: Koenigsberg - TILZIT
On Forums: 12 years 3 months
Thanks: 327604 time(s)
Russian Federation


MIRROR
Register


Go to the top of the page
  Insert nick Quick quote
+Quote Post
post Sep 14 2018, 06:54:03
Post #4

Русь Понад Усе!
**************
Group: Металариец
Posts: 4,056
Releases: 15
From: Украина
On Forums: 11 years 3 weeks
Thanks: 1563 time(s)
Ukraine


Очень вкусный альбом !!! Просто суперская пластинка!!!
Go to the top of the page
  Insert nick Quick quote
+Quote Post
post Sep 14 2018, 07:57:11
Post #5

Ω
Group Icon
Group: V.I.P
Posts: 6,478
Releases: 77
From: Kænugarður
On Forums: 12 years 1 month
Thanks: 9263 time(s)
Ukraine


По первым впечатлениям альбом сложно назвать хорошим. Неплохо, но не более. Я, конечно, понимаю, что мои ожидания - мои проблемы, но блин, в этом Пантеисте нехватка собственно Пантеиста.
Go to the top of the page
  Insert nick Quick quote
+Quote Post
post Sep 15 2018, 17:01:11
Post #6

Маньяк
**********
Group: Металариец
Posts: 1,318
Releases: 0
From: Dnipro
On Forums: 10 years 2 months
Thanks: 366 time(s)
Ukraine


К сожалению только две вещи достойные 5 и 6
Go to the top of the page
  Insert nick Quick quote
+Quote Post
post Sep 15 2018, 17:35:58
Post #7

Аннигилятор пивА
Group Icon
Group: V.I.P
Posts: 48,881
Releases: 14966
From: Koenigsberg - TILZIT
On Forums: 12 years 3 months
Thanks: 327604 time(s)
Russian Federation


OFFICIAL VIDEO
Go to the top of the page
  Insert nick Quick quote
+Quote Post
post Sep 17 2018, 08:47:01
Post #8

Правь статус, ####!111
**************
Group: Металариец
Posts: 2,063
Releases: 23
From: Nakhodka
On Forums: 8 years 3 months
Thanks: 1641 time(s)
Russian Federation


Прекрасно, 4 раза подряд альбом прогнал. Может тяжести и мрачноты несколько не хватает, но слушается все равно замечательно.
Go to the top of the page
  Insert nick Quick quote
+Quote Post
post Sep 18 2018, 12:31:42
Post #9

Три Литра
***
Group: Завсегдатай
Posts: 257
Releases: 0
On Forums: 10 months 4 weeks
Thanks: 97 time(s)
Unknown


Отличается от предыдущих, стало меньше мрака, но интерес не пропадает до самых финальных аккордов
Go to the top of the page
  Insert nick Quick quote
+Quote Post
post Sep 18 2018, 13:47:52
Post #10

Аннигилятор пивА
Group Icon
Group: V.I.P
Posts: 48,881
Releases: 14966
From: Koenigsberg - TILZIT
On Forums: 12 years 3 months
Thanks: 327604 time(s)
Russian Federation


ЦИТАТА(Incantatore @ Sep 18 2018, 11:31:42) *
Отличается от предыдущих, стало меньше мрака, но интерес не пропадает до самых финальных аккордов

насчет прошлого не согласен, тот был совсем иной, припрогленно-постовый какой-то, этот может и поатмосферней-пространней, но ближе к ранним
Go to the top of the page
  Insert nick Quick quote
+Quote Post

Reply to this topicStart new topic
2 User(s) are reading this topic (2 Guests and 0 Anonymous Users)
0 Members:

 



- Lo-Fi Version Support form
Copyrights and abuse reports form
Time is now: 23rd September 2018 - 04:08:23