Welcome Guest ( Log In | Register )

> Releases Upload / Добавление релизов

Добавить релиз тут / Click here to add release
Рекомендованные обменники / Recommended file shares

> Kult - The Eternal Darkness I Adore (2018), Black Metal (D7)
post Sep 13 2018, 15:49:11
Post #1

Правь статус, ####!111
**************
Group: Металариец
Posts: 14,306
Releases: 9914
From: Г.Харьков
On Forums: 6 years 4 months
Thanks: 162716 time(s)
Unknown


(IMG:https://metalarea.org/images/audiocovers/2018_Sep/acov_tid310567_thumb.jpg)

*Artist: Kult
*Album: The Eternal Darkness I Adore
*Year: 2018
*Genre: Black Metal
*Country: Italy (IMG:https://metalarea.org/forum/style_images/flags/Italy.png)
*Format: mp3@CBR320kbps
*Size: 101MB

Tracklist:
1. Intro 02:05
2. The Eternal Darkness I Adore 05:43
3. Pandemonium 04:40
4. Black Drapes 04:55
5. Reaping the Flock 05:35
6. Canticle of Thorns 04:54
7. Hopestrangler 04:31
8. Gruesome Portrait 04:37
9. Devourer of the Night 07:15
******************************
Total playing time: 44:15



Extended info
D.White Bass
Thorns Drums
See also: Blut aus Nord, Chaos Invocation, Cryptic Wanderings, Darvaza, Deathrow, Enepsigos, Fides Inversa, Frostmoon Eclipse, Liber Null, Manetheren, Martröð, Moloch, Shadows Ground, Tumulus Anmatus, Pure (live), Tundra (live), ex-In Extremo Spiritu, ex-Nocratai, ex-Acherontas, ex-Glorior Belli, ex-Handful of Hate, ex-Macabre Omen, ex-Satanic Supplicia, ex-Svlfvr, ex-Enthroned (live), ex-Hobbs Angel of Death (live), ex-The One (live), ex-Violentor (live), ex-11 as in Adversaries, ex-Entropic Degrade Behind Phylogeny
Kacele Guitars
See also: ex-Arvind
Tumulash Vocals (2012-present)
See also: Chaos Invocation, Tumulus Anmatus, Borgne (live), Darvaza (live), Deathrow (live), Fides Inversa (live), ex-Valkyrja (live)


Technical info
(IMG:https://metalarea.org/images/spectrogram/2018_Sep/0d5dd5ef9efa701d729e59bdf1789120.png)
Input File: 03 Pandemonium.mp3
Channels : 2
Sample Rate : 44100
Precision : 16-bit
Duration : 00:04:40.18 = 12355982 samples = 21013.6 CDDA sectors
File Size : 11.2M
Bit Rate : 320k
Sample Encoding: MPEG audio (layer I, II or III)
Comments :
Title=Pandemonium
Artist=Kult
Album=The Eternal Darkness I Adore
Tracknumber=3
Year=2018



Register


Go to the top of the page
  Insert nick Quick quote
+Quote Post
 
Start new topic
Replies (1 - 6)
post Sep 13 2018, 17:01:08
Post #2

Правь статус, ####!111
**************
Group: Металариец
Posts: 14,306
Releases: 9914
From: Г.Харьков
On Forums: 6 years 4 months
Thanks: 162716 time(s)
Unknown


Cloud Mail 320
Register


Go to the top of the page
  Insert nick Quick quote
+Quote Post
post Sep 15 2018, 07:19:33
Post #3

стазис эпидерсис
***********
Group: Металариец
Posts: 1,953
Releases: 0
On Forums: 2 years 7 months
Thanks: 1206 time(s)
Unknown


с миру по нотке, как говорится, но слушается приятно, в меру избито)
отложится ли это голове, вот в чём вопрос, так как качественный винегрет.
Go to the top of the page
  Insert nick Quick quote
+Quote Post
post Sep 15 2018, 08:23:26
Post #4

Правь статус, ####!111
**************
Group: Металариец
Posts: 2,568
Releases: 0
From: Одесса
On Forums: 10 years 6 months
Thanks: 959 time(s)
Ukraine


no personality. ripp off other bands
Go to the top of the page
  Insert nick Quick quote
+Quote Post
post Sep 15 2018, 21:50:05
Post #5

Satan bless you!
**************
Group: Металариец
Posts: 3,252
Releases: 63
From: Москва
On Forums: 10 years 2 months
Thanks: 2804 time(s)
Russian Federation


ЦИТАТА(garmonbozia @ Sep 15 2018, 09:19:33) *
с миру по нотке, как говорится, но слушается приятно, в меру избито)
отложится ли это голове, вот в чём вопрос, так как качественный винегрет.

Абсолютно согласен, что все это у же было, но это не отменяет классность группы, тем более итальянской, где не так уж много клевых банд)
Go to the top of the page
  Insert nick Quick quote
+Quote Post
post Sep 16 2018, 06:22:47
Post #6

Crush! Kill! Destroy!
**************
Group: Металариец
Posts: 4,542
Releases: 15
From: Kaliningrad
On Forums: 10 years 10 months
Thanks: 4246 time(s)
Russian Federation


Отличный реферат на тему: "Что хорошего было в black metal" за последние 10 лет. В меру жесткий, в меру мелодичный, в меру атмосферный. Да, ничего нового и своей изюминки нет (а ее уже придумать нельзя, кмк), но уровень исполнения очень достойный.
Отдельный респект камраду Daale за упоминание этого альбома в топике с Burial Hordes, в противном случае я его пропустил бы.


Thanks:
(1) Daale,
Go to the top of the page
  Insert nick Quick quote
+Quote Post
post Sep 16 2018, 11:58:37
Post #7

кручу наждак
**************
Group: Металариец
Posts: 3,394
Releases: 89
From: Самара
On Forums: 8 years 4 months
Thanks: 2536 time(s)
Russian Federation


Типичный середняк, уху не за что зацепиться (IMG:style_emoticons/default/21.gif)
Go to the top of the page
  Insert nick Quick quote
+Quote Post

Reply to this topicStart new topic
2 User(s) are reading this topic (2 Guests and 0 Anonymous Users)
0 Members:

 



- Lo-Fi Version Support form
Copyrights and abuse reports form
Time is now: 23rd September 2018 - 04:22:38