Welcome Guest ( Log In | Register )

> Releases Upload / Добавление релизов

Добавить релиз тут / Click here to add release
Рекомендованные обменники / Recommended file shares

 
Reply to this topicStart new topic
> Moonlight Prophecy - Breaking Down [ep] (2018), Progressive/Power Metal
post Sep 13 2018, 16:15:14
Post #1

Маньяк
**********
Group: Металариец
Posts: 1,406
Releases: 1191
From: Одесса
On Forums: 10 years 3 months
Thanks: 9276 time(s)
Ukraine


(IMG:http://metalarea.org/images/audiocovers/2018_Sep/acov_tid310568_thumb.jpg)

*Artist: Moonlight Prophecy
*Album: Breaking Down [ep]
*Year: 2018
*Genre: Progressive/Power Metal
*Country: United States (IMG:http://metalarea.org/forum/style_images/flags/United%20States.png)
*Format: mp3@CBR320kbps
*Size: 42MB

Tracklist:
1. Slip of the Knife 03:45 instrumental
2. No More Control 04:50 instrumental
3. Breaking Down 03:24 instrumental
4. Battling Illness 03:16 instrumental
5. The Wind over the Atlantic 02:35 instrumental
******************************
Total playing time: 17:50



Extended info
FLAC RIP

Line - up:

Raphael Gazal - Vocals (Bulletback, Leviathan, Tailgunners, Children of the Beast, ex-Pastore, ex-Blaze Bayley (live))
Lawrence Wallace - All instruments (ex-Evil Divine, ex-Shadows in the Crypt, ex-Lawrence's Creation, ex-Serpent ov Old)
Mika Mage - Bass (Nihilistinen Barbaarisuus, ex-Lawrence's Creation)

(IMG:https://www.metal-archives.com/images/3/5/4/0/3540433975_photo.jpg?5800)


Technical info
(IMG:http://metalarea.org/images/spectrogram/2018_Sep/080e43be58ee6a15a81bd46e4b48e39c.png)
Input File: 03. Breaking Down (instrumental).mp3
Channels : 2
Sample Rate : 48000
Precision : 16-bit
Duration : 00:03:24.56 = 9818640 samples ~ 15341.6 CDDA sectors
File Size : 8.19M
Bit Rate : 320k
Sample Encoding: MPEG audio (layer I, II or III)
Comments :
Title=Breaking Down (instrumental)
Artist=Moonlight Prophecy
Album=Breaking Down (EP)
Tracknumber=3
Year=2018
Genre=Progressive / Power Metal



Register


Thanks:
(2) csgmnk, Rosen,
Go to the top of the page
  Insert nick Quick quote
+Quote Post

Reply to this topicStart new topic
1 User(s) are reading this topic (1 Guests and 0 Anonymous Users)
0 Members:

 



- Lo-Fi Version Support form
Copyrights and abuse reports form
Time is now: 23rd September 2018 - 04:28:32