Welcome Guest ( Log In | Register )

> Trioxine - Rise From The Grave [ep] (2018), Old School Thrash Metal
post Sep 13 2018, 16:52:03
Post #1

Правь статус, ####!111
**************
Group: Металариец
Posts: 14,913
Releases: 10236
From: Г.Харьков
On Forums: 6 years 6 months
Thanks: 168753 time(s)
Unknown


(IMG:https://metalarea.org/images/audiocovers/2018_Sep/acov_tid310569_thumb.jpg)

*Artist: Trioxine
*Album: Rise From The Grave [ep]
*Year: 2018
*Genre: Old School Thrash Metal
*Country: Brazil (IMG:https://metalarea.org/forum/style_images/flags/Brazil.png)
*Format: mp3@CBR320kbps
*Size: 38MB

Tracklist:
01. Rise from the Grave
02. Under Attack
03. Thrash 'till after Death
04. State of Decay
05. In Trioxin Possession
******************************
Total playing time: 17:57



Extended info
Murilo Franco - Infected solo guitar & growl vocals
Ítalo Dourado - Chaos rhythm guitar & zombie voice
Alex Leonardo - Pandemonic bass
Caio Sarmento - Devastation Drums


Technical info
(IMG:https://metalarea.org/images/spectrogram/2018_Sep/26f15b8e28dcd23d8930cdb8a1715122.png)
Input File: 02. Under attack.mp3
Channels : 2
Sample Rate : 44100
Precision : 16-bit
Duration : 00:03:40.33 = 9716641 samples = 16524.9 CDDA sectors
File Size : 8.91M
Bit Rate : 324k
Sample Encoding: MPEG audio (layer I, II or III)
Comments :
Title=Under attack
Artist=Trioxine
Album=Rise from the grave
Tracknumber=2
Year=2018
Discnumber=1



Register


Go to the top of the page
  Insert nick Quick quote
+Quote Post
 
Start new topic
Replies (1 - 1)
post Sep 18 2018, 07:33:45
Post #2

South Of Heaven /адепт ВУДУ
**************
Group: Металариец
Posts: 13,162
Releases: 7
From: Санкт-Петербург
On Forums: 8 years 7 months
Thanks: 4800 time(s)
Russian Federation


Разве не Бразилия?

https://www.metal-archives.com/bands/Trioxine/3540445057

Для дебютной ипишки неплохо.


Thanks:
Go to the top of the page
  Insert nick Quick quote
+Quote Post

Reply to this topicStart new topic
1 User(s) are reading this topic (1 Guests and 0 Anonymous Users)
0 Members:

 



- Lo-Fi Version Support form
Copyrights and abuse reports form
Time is now: 14th November 2018 - 14:14:33