Welcome Guest ( Log In | Register )

> Ally The Fiddle - Up (2018), Folk Rock/Metal (D4)
post Sep 13 2018, 17:17:38
Post #1

Маньяк
**********
Group: Металариец
Posts: 1,434
Releases: 1220
From: Одесса
On Forums: 10 years 5 months
Thanks: 9528 time(s)
Ukraine


(IMG:http://metalarea.org/images/audiocovers/2018_Sep/acov_tid310570_thumb.jpg)

*Artist: Ally The Fiddle
*Album: Up
*Year: 2018
*Genre: Folk Rock/Metal
*Country: Germany (IMG:http://metalarea.org/forum/style_images/flags/Germany.png)
*Format: mp3@CBR320kbps
*Size: 152MB

Tracklist:
1. Sisyphos 06:26
2. Aphotic Zone 06:01
3. The Bass Thing 08:01
4. The Path 07:43
5. Tree 06:08
6. Try to Stop Me 05:28
7. Living in a Bubble 06:23
8. Entering Stratosphere 04:22
9. Center Su(O)N' 08:33
10. Surfing with the Alien 04:17
******************************
Total playing time: 1:03:22

(IMG:http://metalarea.org/images/myspace.png)

(IMG:http://metalarea.org/images/youtube.png)

Extended info
Line - up:

Stefan "Huky" Hukriede - Drums
Diemo Heuer - Guitars (Determination)
Robert "Rob" Klawonn - Guitars (Poised, ex-Weyland)
Almut "Ally" Storch-Hukriede - Vocals, Violin, Fiddle, Viola (Subway to Sally, ex-Folkearth, ex-Haggard)
Simon T. - Bass (Decision, ex-Othis, ex-The Gebruder Grim)
Rouven Haliti - Chapman Stick (Determination, CozmicRip)



(IMG:https://www.metal-archives.com/images/3/5/4/0/3540276311_photo.jpg)


Technical info
(IMG:http://metalarea.org/images/spectrogram/2018_Sep/eb32c996c6d2cd90bf98f9b5a780347b.png)
Input File: 03 The Bass Thing.mp3
Channels : 2
Sample Rate : 44100
Precision : 16-bit
Duration : 00:08:01.57 = 21237281 samples = 36117.8 CDDA sectors
File Size : 19.3M
Bit Rate : 321k
Sample Encoding: MPEG audio (layer I, II or III)
Comments :
Title=The Bass Thing
Artist=Ally The Fiddle
Album=Up
Tracknumber=3
Year=2018
Genre=Folk Rock / Metal



Register


Go to the top of the page
  Insert nick Quick quote
+Quote Post
 
Start new topic
Replies (1 - 1)
post Sep 14 2018, 19:07:06
Post #2

к приему виски готов
******
Group: Металариец
Posts: 677
Releases: 2
From: Украина
On Forums: 9 years 8 months
Thanks: 398 time(s)
Ukraine


в 2008 было весело, в 2013 нудно, в 2018- (IMG:style_emoticons/default/normal_Homerdisgust3.png)
Go to the top of the page
  Insert nick Quick quote
+Quote Post

Reply to this topicStart new topic
1 User(s) are reading this topic (1 Guests and 0 Anonymous Users)
0 Members:

 



- Lo-Fi Version Support form
Copyrights and abuse reports form
Time is now: 14th November 2018 - 14:38:12