Welcome Guest ( Log In | Register )

> Hessian - Mercenary Retrograde (2018), Occult Heavy Metal
post Sep 13 2018, 17:48:50
Post #1

Правь статус, ####!111
**************
Group: Металариец
Posts: 14,913
Releases: 10236
From: Г.Харьков
On Forums: 6 years 6 months
Thanks: 168753 time(s)
Unknown


(IMG:https://metalarea.org/images/audiocovers/2018_Sep/acov_tid310571_thumb.jpg)

*Artist: Hessian
*Album: Mercenary Retrograde
*Year: 2018
*Genre: Occult Heavy Metal
*Country: United States (IMG:https://metalarea.org/forum/style_images/flags/United%20States.png)
*Format: mp3@CBR320kbps
*Size: 82MB

Tracklist:
1. I Wish I Was Dead 04:20
2. Skull Ring 05:18
3. Legpuller 04:23
4. Dude Messiah 03:21
5. Saint Leopold 06:31
6. The Viper 06:15
7. Rock 'n' Roll Soldiers 04:17
8. Manos The Hands of Fate 03:24
******************************
Total playing time: 37:49




Extended info
Angus McFarland - Guitars, Vocals
Michael Pearce - Bass
Greg Souza - Drums
Zak Haab - Guitars, Vocals


Technical info
(IMG:https://metalarea.org/images/spectrogram/2018_Sep/30755cafc82872ed56afa3d115b7b0c6.png)
Input File: 02 Skull Ring.mp3
Channels : 2
Sample Rate : 44100
Precision : 16-bit
Duration : 00:04:59.25 = 13197013 samples = 22443.9 CDDA sectors
File Size : 12.1M
Bit Rate : 323k
Sample Encoding: MPEG audio (layer I, II or III)
Comments :
Title=Skull Ring
Artist=Hessian
Album=Mercenary Retrograde
Tracknumber=2
Year=2018



Register


Go to the top of the page
  Insert nick Quick quote
+Quote Post
 
Start new topic
Replies (1 - 1)
post Sep 14 2018, 04:44:08
Post #2

Правь статус, ####!111
**************
Group: Металариец
Posts: 14,913
Releases: 10236
From: Г.Харьков
On Forums: 6 years 6 months
Thanks: 168753 time(s)
Unknown


Cloud Mail 320
Register


Thanks:
(1) marilin,
Go to the top of the page
  Insert nick Quick quote
+Quote Post

Reply to this topicStart new topic
1 User(s) are reading this topic (1 Guests and 0 Anonymous Users)
0 Members:

 



- Lo-Fi Version Support form
Copyrights and abuse reports form
Time is now: 14th November 2018 - 14:01:29