Welcome Guest ( Log In | Register )

> Ominous Eclipse - Sinister (2018), Melodic Death/Thrash Metal
post Sep 13 2018, 19:15:37
Post #1

Правь статус, ####!111
**************
Group: Металариец
Posts: 14,975
Releases: 10262
From: Г.Харьков
On Forums: 6 years 6 months
Thanks: 169270 time(s)
Unknown


(IMG:https://metalarea.org/images/audiocovers/2018_Sep/acov_tid310572_thumb.jpg)

*Artist: Ominous Eclipse
*Album: Sinister
*Year: 2018
*Genre: Melodic Death/Thrash Metal
*Country: Canada (IMG:https://metalarea.org/forum/style_images/flags/Canada.png)
*Format: mp3@CBR320kbps
*Size: 119MB

Tracklist:
1. Death by Dissection 06:13
2. Sinister 05:01
3. Spiral into Insanity 04:16
4. Lost at Sea 08:03
5. No Redemption for the Damned 06:44
6. Breaking the Chains 05:51
7. The Horde 07:26
8. Eye of the Raven 06:42
******************************
Total playing time: 50:16




Extended info
Graham Murphy - Guitar/Vocal
James Close - Guitar/Vocal
Ryan Clements - Bass
Jeremiah Marshall - Drums


Technical info
(IMG:https://metalarea.org/images/spectrogram/2018_Sep/76be7cadb21396a73a3a9f50712d9283.png)
Input File: 02 Sinister.mp3
Channels : 2
Sample Rate : 44100
Precision : 16-bit
Duration : 00:05:01.21 = 13283273 samples = 22590.6 CDDA sectors
File Size : 12.6M
Bit Rate : 334k
Sample Encoding: MPEG audio (layer I, II or III)
Comments :
Title=Sinister
Artist=Ominous Eclipse
Album=Sinister
Tracknumber=2/8
Year=2018
Genre=Metal
Discnumber=1/1



Register


Go to the top of the page
  Insert nick Quick quote
+Quote Post
 
Start new topic
Replies (1 - 2)
post Sep 14 2018, 04:49:34
Post #2

Правь статус, ####!111
**************
Group: Металариец
Posts: 14,975
Releases: 10262
From: Г.Харьков
On Forums: 6 years 6 months
Thanks: 169270 time(s)
Unknown


Cloud Mail 320
Register


Thanks:
Go to the top of the page
  Insert nick Quick quote
+Quote Post
post Yesterday, 21:11:05
Post #3

Stultus Anethum Siccum.
******
Group: Металариец
Posts: 604
Releases: 0
On Forums: 9 years 9 months
Thanks: 68 time(s)
Unknown


Очень даже ничего, за исключением пары-тройки песен.
Кстати, и дебютник неплох, если подсократить его до получаса.
В общем, парни явно прогрессируют, следующий альбом наверняка будет шедевром!
Go to the top of the page
  Insert nick Quick quote
+Quote Post

Reply to this topicStart new topic
1 User(s) are reading this topic (1 Guests and 0 Anonymous Users)
0 Members:

 



- Lo-Fi Version Support form
Copyrights and abuse reports form
Time is now: 17th November 2018 - 01:47:50