Welcome Guest ( Log In | Register )

 
Reply to this topicStart new topic
> Radux - Disaster Imminent [ep] (2018), Old School Thrash/Speed Metal
post Sep 13 2018, 22:37:35
Post #1

Правь статус, ####!111
**************
Group: Металариец
Posts: 14,913
Releases: 10236
From: Г.Харьков
On Forums: 6 years 6 months
Thanks: 168753 time(s)
Unknown


(IMG:https://metalarea.org/images/audiocovers/2018_Sep/acov_tid310573_thumb.jpg)

*Artist: Radux
*Album: Disaster Imminent [ep]
*Year: 2018
*Genre: Old School Thrash/Speed Metal
*Country: Finland (IMG:https://metalarea.org/forum/style_images/flags/Finland.png)
*Format: mp3@CBR320kbps
*Size: 29MB

Tracklist:
1. Fallout 02:33
2. Irradiated Death 04:06
3. Ashes of this World 04:18
4. Think for Yourself 02:30
******************************
Total playing time: 13:27



Extended info
Juho Vaarala Bass, Vocals
Markus Kyrölä Guitars
Joacim Osenius Guitars
Leo Mäkinen Drums


Technical info
(IMG:https://metalarea.org/images/spectrogram/2018_Sep/2f44c5878ed48080099ae4e5b2668732.png)
Input File: 02. Irradiated Death.mp3
Channels : 2
Sample Rate : 44100
Precision : 16-bit
Duration : 00:04:05.52 = 10827212 samples = 18413.6 CDDA sectors
File Size : 9.91M
Bit Rate : 323k
Sample Encoding: MPEG audio (layer I, II or III)
Comments :
Title=Irradiated Death
Artist=Radux
Album=Disaster Imminent
Tracknumber=2
Year=2018
Discnumber=1



Register


Go to the top of the page
  Insert nick Quick quote
+Quote Post

Reply to this topicStart new topic
1 User(s) are reading this topic (1 Guests and 0 Anonymous Users)
0 Members:

 



- Lo-Fi Version Support form
Copyrights and abuse reports form
Time is now: 14th November 2018 - 14:02:05