Welcome Guest ( Log In | Register )

> Wrestling - Ride On Freaks (2018), Heavy Metal
post Sep 14 2018, 01:59:36
Post #1

Правь статус, ####!111
**************
Group: Металариец
Posts: 14,913
Releases: 10236
From: Г.Харьков
On Forums: 6 years 6 months
Thanks: 168760 time(s)
Unknown


(IMG:https://metalarea.org/images/audiocovers/2018_Sep/acov_tid310574_thumb.jpg)

*Artist: Wrestling
*Album: Ride On Freaks
*Year: 2018
*Genre: Heavy Metal
*Country: Finland (IMG:https://metalarea.org/forum/style_images/flags/Finland.png)
*Format: mp3@CBR320kbps
*Size: 115MB

Tracklist:
1. Let's Get Born 04:11
2. Surreal Killer 04:31
3. Venom Makes Me Stronger 03:35
4. Kitsch in America 03:39
5. Drunk and Alone 04:09
6. Wrestlemania VI 04:51
7. Beyond the Limits 03:50
8. Feels like Midnight 03:28
9. Driving All Night 06:03
10. The Solution to All Your Problems 04:08
11. See Delight 06:56
******************************
Total playing time: 49:21



Extended info
Riku Rousu Bass, Vocals
Janne Kela Drums
See also: ex-Lycantrophy, ex-Sacred Crucifix
Risto Nyman Guitars
Pekka Moilanen Guitars
See also: Devil Creations
Tommi Saha Vocals



Technical info
(IMG:https://metalarea.org/images/spectrogram/2018_Sep/a25b11f788775ca10283fabd52012cb8.png)
Input File: 05 Drunk and Alone.mp3
Channels : 2
Sample Rate : 44100
Precision : 16-bit
Duration : 00:04:09.59 = 11006787 samples = 18719 CDDA sectors
File Size : 10.2M
Bit Rate : 328k
Sample Encoding: MPEG audio (layer I, II or III)
Comments :
Title=Drunk and Alone
Artist=Wrestling
Album=Ride on Freaks
Tracknumber=5/11
Year=2018
Genre=Rock
Discnumber=1/1



Register


Go to the top of the page
  Insert nick Quick quote
+Quote Post
 
Start new topic
Replies (1 - 1)
post Sep 14 2018, 04:53:18
Post #2

Правь статус, ####!111
**************
Group: Металариец
Posts: 14,913
Releases: 10236
From: Г.Харьков
On Forums: 6 years 6 months
Thanks: 168760 time(s)
Unknown


Cloud Mail 320
Register
Go to the top of the page
  Insert nick Quick quote
+Quote Post

Reply to this topicStart new topic
1 User(s) are reading this topic (1 Guests and 0 Anonymous Users)
0 Members:

 



- Lo-Fi Version Support form
Copyrights and abuse reports form
Time is now: 14th November 2018 - 15:00:18